<?xml version="1.0" standalone="no"?>
<!DOCTYPE svg PUBLIC "-//W3C//DTD SVG 1.1//EN" "http://www.w3.org/Graphics/SVG/1.1/DTD/svg11.dtd" >
<svg xmlns="http://www.w3.org/2000/svg" xmlns:xlink="http://www.w3.org/1999/xlink" version="1.1">
<metadata>
Created by FontForge 20170731 at Fri Feb 17 01:14:12 2023
 By Aleksey,,,
copyright missing
</metadata>
<defs>
<font id="Loud-Black" horiz-adv-x="1228" >
  <font-face 
    font-family="Loud Black"
    font-weight="400"
    font-stretch="normal"
    units-per-em="2048"
    panose-1="0 0 0 0 0 0 0 0 0 0"
    ascent="1638"
    descent="-410"
    cap-height="1434"
    bbox="-123 -457 2576 1677"
    underline-thickness="102"
    underline-position="-358"
    unicode-range="U+0020-2026"
  />
<missing-glyph horiz-adv-x="1024" 
d="M840 1638v-2048h-650v2048h650zM342 -268h340v67h-209l143 97h66v67h-340v-67h143l-143 -97v-67zM342 10h340v232h-340v-232zM342 365h340v231h-205v-115h70v47h67v-96h-204v164h-68v-231zM342 641h340v205h-68v-135h-272v-70zM342 758h205v143h135v68h-340v-68h135v-76
h-135v-67zM342 1024h340v70h-135v143h-205v-213zM342 1290h340v68h-135v76h135v67h-338v-67h133v-76h-135v-68zM410 78v96h204v-96h-204zM410 1094v73h67v-73h-67z" />
    <glyph glyph-name=".notdef" horiz-adv-x="1024" 
d="M840 1638v-2048h-650v2048h650zM342 -268h340v67h-209l143 97h66v67h-340v-67h143l-143 -97v-67zM342 10h340v232h-340v-232zM342 365h340v231h-205v-115h70v47h67v-96h-204v164h-68v-231zM342 641h340v205h-68v-135h-272v-70zM342 758h205v143h135v68h-340v-68h135v-76
h-135v-67zM342 1024h340v70h-135v143h-205v-213zM342 1290h340v68h-135v76h135v67h-338v-67h133v-76h-135v-68zM410 78v96h204v-96h-204zM410 1094v73h67v-73h-67z" />
    <glyph glyph-name=".null" horiz-adv-x="0" 
 />
    <glyph glyph-name="nonmarkingreturn" horiz-adv-x="682" 
 />
    <glyph glyph-name="space" unicode=" " horiz-adv-x="409" 
 />
    <glyph glyph-name="space" unicode="&#xa0;" horiz-adv-x="409" 
 />
    <glyph glyph-name="exclam" unicode="!" horiz-adv-x="630" 
d="M317 -45q-95 0 -161 66t-66 161q0 93 66 159.5t161 66.5t160.5 -66.5t65.5 -159.5q0 -95 -65.5 -161t-160.5 -66zM10 1427v7h611v-7q-20 0 -37 -17t-30 -53t-22 -69.5t-17.5 -88.5t-12.5 -87t-10 -88q-32 -280 -26 -381q8 -119 58 -119v-6h-418v6q17 0 28.5 13t18 36.5
t10 54t3 68.5t-2.5 77t-6 82.5t-8 82.5t-9 78q-1 5 -1 8q-6 56 -10 88t-12.5 87t-17.5 88.5t-22 69.5t-30 53t-37 17z" />
    <glyph glyph-name="quotedbl" unicode="&#x22;" 
 />
    <glyph glyph-name="numbersign" unicode="#" horiz-adv-x="1386" 
d="M692 1427q-92 0 -106 -301h215q-14 301 -107 301v7h529v-7q-93 0 -107 -301h66q41 0 59 0.5t43.5 2.5t35.5 6t21.5 12t15 19.5t3.5 29.5h6v-446h-6q0 17 -3.5 29t-14.5 19.5t-20.5 12t-34.5 6t-42.5 2t-57.5 0.5h-2.5h-2.5h-70v-205h70q41 0 59 0.5t43.5 2.5t35.5 6
t21.5 12t15 19.5t3.5 29.5h6v-446h-6q0 17 -3.5 29t-14.5 19.5t-20.5 12t-34.5 6t-42.5 2t-57.5 0.5h-2.5h-2.5h-66q14 -301 107 -301v-6h-529v6q93 0 107 301h-215q14 -301 106 -301v-6h-528v6q92 0 106 301h-65h-5q-40 0 -57.5 -0.5t-42.5 -2t-34.5 -6t-20.5 -12
t-14.5 -19.5t-3.5 -29h-7v446h7q0 -18 3.5 -29.5t15 -19.5t21.5 -12t35.5 -6t43.5 -2.5t59 -0.5h69v205h-69h-5q-40 0 -57.5 -0.5t-42.5 -2t-34.5 -6t-20.5 -12t-14.5 -19.5t-3.5 -29h-7v446h7q0 -18 3.5 -29.5t15 -19.5t21.5 -12t35.5 -6t43.5 -2.5t59 -0.5h65
q-14 301 -106 301v7h528v-7zM582 614h223v205h-223v-205z" />
    <glyph glyph-name="ampersand" unicode="&#x26;" horiz-adv-x="1466" 
d="M741 883q46 0 80.5 -2t76.5 -8.5t71 -20.5t55 -35.5t39.5 -56.5t13.5 -80q0 45 13 80t36 56.5t48.5 35.5t57 20.5t54 8.5t47.5 2h154v-328h-119q-124 0 -205.5 -51.5t-81.5 -124.5h-8q0 77 -92.5 126.5t-273.5 49.5h-72q-110 0 -165 -23.5t-56 -76.5q2 -50 54.5 -73.5
t166.5 -23.5q138 0 201 34t63 108h6v-355q0 -18 -25.5 -47t-71 -60t-125.5 -53t-173 -22q-236 0 -363 121.5t-127 325.5q0 117 41.5 190t118.5 117q-77 44 -118.5 117t-41.5 190q0 203 127 324.5t363 121.5q93 0 173 -22t125.5 -53t71 -60t25.5 -47v-354h-6q0 74 -63 107.5
t-201 33.5q-116 0 -168.5 -23.5t-52.5 -74.5q0 -52 51 -73t170 -21h106z" />
    <glyph glyph-name="quotesingle" unicode="'" horiz-adv-x="509" 
d="M500 1157q0 -151 -80.5 -249.5t-188.5 -98.5h-221l2 4q34 0 57.5 31t33.5 82t14 95t4 91v322h379v-277z" />
    <glyph glyph-name="asterisk" unicode="*" 
 />
    <glyph glyph-name="comma" unicode="," horiz-adv-x="479" 
d="M469 92q0 -151 -80 -249.5t-188 -98.5h-221l2 4q34 0 57 31t33.5 82t14 94.5t3.5 91.5v205h379v-160z" />
    <glyph glyph-name="hyphen" unicode="-" horiz-adv-x="1103" 
d="M16 1022q0 -63 128.5 -87t347.5 -24h120q219 0 347 24t128 87h7v-610h-7q0 63 -127.5 86.5t-347.5 23.5h-120q-220 0 -348 -23.5t-128 -86.5h-6v610h6z" />
    <glyph glyph-name="period" unicode="." horiz-adv-x="575" 
d="M289 -45q-95 0 -161.5 66t-66.5 161q0 93 66.5 159.5t161.5 66.5q94 0 159.5 -66.5t65.5 -159.5q0 -95 -65 -161t-160 -66z" />
    <glyph glyph-name="slash" unicode="/" 
 />
    <glyph glyph-name="zero" unicode="0" 
d="M614 1470q142 0 256 -59t187.5 -162t112 -239t38.5 -293t-38.5 -293.5t-112 -239.5t-187.5 -162t-256 -59t-256 59t-187.5 162t-112 239.5t-38.5 293.5t38.5 293t112 239t187.5 162t256 59zM430 715q0 -145 49.5 -243.5t134.5 -98.5t135 98.5t50 243.5q0 149 -50 247.5
t-135 98.5t-134.5 -98t-49.5 -248z" />
    <glyph glyph-name="one" unicode="1" horiz-adv-x="778" 
d="M766 1434v-7q-63 0 -87 -128t-24 -347v-471q0 -219 24 -347t87 -128v-6h-610v6q63 0 86.5 127.5t23.5 347.5v330q-20 -28 -42.5 -48.5t-45 -32t-42.5 -19t-40 -9.5t-33 -2t-27 1t-16 1v414h7q16 -41 67 -41q64 1 113 66q59 79 59 213v80h500z" />
    <glyph glyph-name="two" unicode="2" 
d="M1204 -25q-10 7 -21.5 11.5t-30 7t-32.5 4t-45 2t-51 0.5h-66.5h-76.5h-547h-76.5h-66.5t-51.5 -0.5t-45.5 -2t-32.5 -4t-30 -7t-21.5 -11.5l-4 5q42 32 55 96t13 211v61q313 96 469.5 216.5t156.5 295.5q0 101 -83.5 158t-215.5 57q-117 0 -206 -53.5t-89 -126.5h-6v354
q0 15 13 39.5t46.5 56.5t80.5 59.5t125.5 46.5t171.5 19q258 0 408.5 -144.5t150.5 -369.5q0 -100 -42 -189t-104.5 -152t-148 -116.5t-161 -85t-153.5 -55.5h68h104q219 0 347.5 24t128.5 87h6v-182q0 -148 12.5 -211.5t54.5 -95.5z" />
    <glyph glyph-name="three" unicode="3" horiz-adv-x="925" 
d="M754 717q159 -91 159 -307q0 -204 -126.5 -325.5t-362.5 -121.5q-187 0 -318 86.5t-131 177.5v355h7q0 -79 93 -151.5t224 -72.5q116 0 168.5 24t52.5 75q0 114 -221 114q-162 0 -209 -20v332q49 -21 209 -21q221 0 221 115q0 51 -52.5 74.5t-168.5 23.5q-131 0 -224 -72
t-93 -151h-7v354q0 91 131 177.5t318 86.5q236 0 362.5 -121t126.5 -325q0 -216 -159 -307z" />
    <glyph glyph-name="four" unicode="4" horiz-adv-x="1187" 
d="M1028 1434v-7q-63 0 -86.5 -127.5t-23.5 -347.5v-278h9q42 0 63 0.5t55.5 2.5t52.5 7t39 13.5t31.5 23t13.5 33.5h6q-17 -81 -17 -203q0 -145 17 -191h-6q-7 11 -19 17t-33.5 7.5t-41 1.5t-55.5 -1.5t-62 -1.5h-51q7 -377 108 -377v-6h-610v6q101 0 108 373
q-500 -12 -520 -68h-6q29 93 29 219q0 131 -29 195l6 8q51 7 140 83t173.5 176.5t146.5 213.5t62 187v41h500zM369 674h159v205q-13 -59 -62 -119.5t-97 -85.5z" />
    <glyph glyph-name="five" unicode="5" 
 />
    <glyph glyph-name="six" unicode="6" horiz-adv-x="1107" 
d="M653 913q105 0 187 -36t133 -100.5t77.5 -149.5t26.5 -187q0 -210 -128.5 -343.5t-362.5 -133.5q-145 0 -253 49t-173.5 140t-97 212t-31.5 273q0 183 35.5 332t106.5 262.5t187.5 176t270.5 62.5q85 0 154.5 -19t110 -46t68.5 -59.5t38 -57t10 -39.5v-354h-6
q0 65 -85.5 122.5t-201.5 57.5q-133 0 -217.5 -86.5t-104.5 -220.5q20 61 89 103t167 42zM481 455q0 -51 24.5 -86t65.5 -35t66 35t25 86q0 50 -24.5 82t-66.5 32t-66 -31.5t-24 -82.5z" />
    <glyph glyph-name="seven" unicode="7" horiz-adv-x="1261" 
d="M633 1434h629l-115 -410q-63 -46 -108.5 -84t-112 -103.5t-123 -148.5t-98.5 -178q-50 -128 -44 -240t46.5 -188t87.5 -76v-6h-582q0 282 136 538.5t448 499.5h-361q-65 0 -118 -5t-90 -11.5t-68.5 -19.5t-49 -23t-36 -28.5t-26 -29.5t-21.5 -32.5t-21 -30.5h-6
q34 75 80 209.5t47 136.5q49 132 49 281h6q3 -10 14 -18t31 -13t41.5 -9t54 -6.5t59 -3.5t65 -1.5t64 -0.5t64 0.5t58.5 0.5z" />
    <glyph glyph-name="eight" unicode="8" 
 />
    <glyph glyph-name="nine" unicode="9" horiz-adv-x="1107" 
d="M455 520q-105 0 -187 36t-133 100.5t-77.5 149.5t-26.5 187q0 210 128.5 343.5t362.5 133.5q116 0 209 -32t157 -90.5t107 -142.5t62.5 -185.5t19.5 -222.5q0 -145 -22 -270t-68.5 -229.5t-116.5 -178.5t-170 -115t-223 -41q-85 0 -154.5 19t-110 46t-68.5 59.5t-38 57
t-10 39.5v355h6q0 -65 85.5 -123t201.5 -58q133 0 217.5 87t104.5 221q-20 -61 -89 -103.5t-167 -42.5zM446 979q0 -51 24.5 -83t66.5 -32t66 32t24 83t-24.5 86t-65.5 35t-66 -35t-25 -86z" />
    <glyph glyph-name="colon" unicode=":" 
 />
    <glyph glyph-name="semicolon" unicode=";" 
 />
    <glyph glyph-name="question" unicode="?" horiz-adv-x="946" 
d="M369 -45q-95 0 -161.5 66t-66.5 161q0 93 66.5 159.5t161.5 66.5q94 0 159.5 -66.5t65.5 -159.5q0 -95 -65 -161t-160 -66zM31 856v432q0 18 25.5 47t71 60t125.5 53t173 22q236 0 362.5 -121t126.5 -325q0 -96 -30.5 -173.5t-77.5 -128.5t-120 -91.5t-142 -63.5
t-158 -43q-8 -2 -23 -5q-45 -9 -65 -15t-37.5 -21t-17.5 -39h-6v162q0 78 -11 123t-25 57.5t-34 12.5v6h133q108 0 164.5 32.5t56.5 94.5q0 64 -43.5 103.5t-134.5 39.5q-136 0 -221.5 -69t-85.5 -150h-6z" />
    <glyph glyph-name="A" unicode="A" horiz-adv-x="1507" 
d="M383 1427v7h741v-7q-114 0 -6 -395l154 -551q21 -75 35.5 -124t34.5 -110t37 -99t37 -73.5t41.5 -52t43.5 -16.5v-6h-635v6q61 0 43 201h-311q-18 -201 43 -201v-6h-635v6q22 0 43.5 16.5t42 51.5t37.5 74t37 99t35 110t35 124l153 551q108 395 -6 395zM655 535h197
l-98 483z" />
    <glyph glyph-name="B" unicode="B" horiz-adv-x="1261" 
d="M512 481q0 -98 2 -143q81 -23 135 -23q90 0 135 43.5t45 104.5q0 64 -49.5 100.5t-136.5 36.5q-45 0 -131 -14v-105zM12 0v6q63 0 87 128t24 347v471q0 219 -24 347t-87 128v7h656q92 0 172.5 -20t146 -60.5t103.5 -109t38 -157.5q0 -178 -155 -301q49 -19 94 -50.5
t85.5 -77.5t64.5 -110.5t24 -137.5q0 -197 -124 -303.5t-345 -106.5h-760zM512 891h55q78 0 114 32.5t36 86.5q0 48 -34.5 78t-92.5 30q-15 0 -41 -2t-37 -2v-223z" />
    <glyph glyph-name="C" unicode="C" horiz-adv-x="1150" 
d="M436 717q0 -163 103 -252.5t266 -89.5q138 0 223.5 62t85.5 141h6v-433q0 -18 -25.5 -47t-72 -60t-126.5 -53t-173 -22q-148 0 -274.5 49t-221 141.5t-149.5 235t-58 320.5q0 182 54.5 328t150 240t222 143.5t272.5 49.5q95 0 176 -22t127.5 -53t72 -60t25.5 -47v-432h-6
q0 79 -85 141t-222 62q-165 0 -268 -90.5t-103 -251.5z" />
    <glyph glyph-name="D" unicode="D" horiz-adv-x="1327" 
d="M502 1434q379 0 595 -192t210 -533q-6 -333 -217 -521t-588 -188h-490v6q63 0 87 128t24 347v471q0 219 -24 347t-87 128v7h490zM512 391h10q163 0 266 85.5t103 240.5q0 153 -103.5 239t-267.5 86h-8v-651z" />
    <glyph glyph-name="E" unicode="E" horiz-adv-x="1159" 
d="M1004 989h6v-477h-6q0 44 -50 61t-172 17h-266v-201h248q338 0 338 119h6v-524q-16 16 -287 16h-434h-77.5t-67 0.5t-53.5 0t-46 -1t-36 -1.5t-31 -3t-23 -4.5t-20.5 -6.5t-16.5 -9l-4 5q60 47 87.5 157t27.5 344v471q0 219 -24 347t-87 128v7h805q267 0 287 16v-463h-6
q0 57 -117 57h-469v-126h266q222 0 222 71z" />
    <glyph glyph-name="F" unicode="F" horiz-adv-x="1159" 
d="M1004 989h6v-477h-6q0 44 -50 61t-172 17h-266v-109q0 -219 24 -347t87 -128v-6h-328h-35q-130 0 -175.5 -3.5t-72.5 -21.5l-4 5q60 47 87.5 157t27.5 344v471q0 219 -24 347t-87 128v7h805q267 0 287 16v-463h-6q0 57 -117 57h-469v-126h266q222 0 222 71z" />
    <glyph glyph-name="G" unicode="G" horiz-adv-x="1363" 
d="M874 739h551v-6q-34 0 -56 -20t-33.5 -60.5t-16 -89t-4.5 -117.5v-299q-96 -75 -235.5 -129.5t-295.5 -54.5q-347 0 -552.5 194t-211.5 552q0 182 58.5 328.5t159.5 240t234.5 143t287.5 49.5q126 0 221.5 -22.5t147 -59t76 -75t24.5 -76.5v-381h-6q0 48 -63.5 95.5
t-160.5 77.5t-192 30q-165 0 -268 -90.5t-103 -251.5q0 -163 103 -252.5t266 -89.5q38 0 70.5 7.5t51.5 17.5t32.5 20.5t18.5 17.5l5 8q0 155 -25.5 221t-83.5 66v6z" />
    <glyph glyph-name="H" unicode="H" horiz-adv-x="1499" 
d="M623 1427q-63 0 -87 -128t-24 -347v-24h475v24q0 220 -23.5 347.5t-86.5 127.5v7h610v-7q-63 0 -87 -128t-24 -347v-471q0 -219 24 -347t87 -128v-6h-359q-133 0 -178.5 -3.5t-72.5 -21.5l-5 5q60 47 87.5 157t27.5 344v99h-475v-99q0 -219 24 -347t87 -128v-6h-611v6
q63 0 87 128t24 347v471q0 219 -24 347t-87 128v7h611v-7z" />
    <glyph glyph-name="I" unicode="I" horiz-adv-x="634" 
d="M623 1427q-63 0 -87 -128t-24 -347v-471q0 -219 24 -347t87 -128v-6h-611v6q63 0 87 128t24 347v471q0 219 -24 347t-87 128v7h611v-7z" />
    <glyph glyph-name="J" unicode="J" horiz-adv-x="788" 
d="M172 1434h610v-7q-63 0 -86.5 -127.5t-23.5 -347.5v-551q0 -221 -77 -329.5t-255 -108.5q-80 0 -146.5 20.5t-104.5 50.5t-58.5 59t-20.5 50v435h6q0 -31 15 -68.5t53 -69.5t88 -32q111 0 111 170v374q0 219 -24 347t-87 128v7z" />
    <glyph glyph-name="K" unicode="K" horiz-adv-x="1495" 
d="M623 1427q-63 0 -87 -128t-24 -347v-231h2l166 307q216 399 102 399v7h648v-7q-26 0 -50.5 -13.5t-43.5 -31.5t-43.5 -56t-41 -67.5t-47.5 -86.5q-2 -3 -3 -5l-2.5 -5l-2.5 -5l-238 -440l304 -481q143 -230 225 -230v-6h-647v6q62 0 -1 133t-194 342l-133 213v-213
q0 -219 24 -347t87 -128v-6h-611v6q63 0 87 128t24 347v471q0 219 -24 347t-87 128v7h611v-7z" />
    <glyph glyph-name="L" unicode="L" horiz-adv-x="1118" 
d="M1102 508h6v-524q-16 16 -287 16h-434h-77.5t-67 0.5t-53.5 0t-46 -1t-36 -1.5t-31 -3t-23 -4.5t-20.5 -6.5t-16.5 -9l-4 5q60 47 87.5 157t27.5 344v471q0 219 -24 347t-87 128v7h611v-7q-63 0 -87 -128t-24 -347v-563h248q338 0 338 119z" />
    <glyph glyph-name="M" unicode="M" horiz-adv-x="1816" 
d="M1804 1427q-63 0 -86.5 -127.5t-23.5 -347.5v-471q0 -220 23.5 -347.5t86.5 -127.5v-6h-610v6q63 0 87 128t24 347v303l-45 -75q-54 -92 -152.5 -237.5t-161.5 -250t-88 -186.5l-6 2q8 31 1 70t-36 103t-53 110t-81 149.5t-89 163.5l-82 153v-305q0 -219 24 -347t87 -128
v-6h-611v6q63 0 87 128t24 347v471q0 219 -24 347t-87 128v7h680l2 -7q-34 0 -28 -34q5 -33 82 -184q32 -62 47 -93l120 -239l125 239q109 209 123 258q8 51 -28 53l2 7h667v-7z" />
    <glyph glyph-name="N" unicode="N" horiz-adv-x="1495" 
d="M516 481q0 -219 24 -347t87 -128v-6h-385q-117 0 -158.5 -4t-67.5 -21l-4 5q60 47 87.5 157t27.5 344v471q0 219 -24 347t-87 128v7h627l2 -7q-25 0 -30 -16t15 -61t54 -104.5t100 -168.5l199 -325v200q0 219 -24 347t-87 128v7h611v-7q-63 0 -87 -128t-24 -347v-471
q0 -219 24 -347t87 -128v-6h-611v6q52 0 52 49q0 16 -7 39t-23.5 57t-34 66.5t-48.5 85.5t-56 95t-68 113t-73 122l-98 166v-318z" />
    <glyph glyph-name="O" unicode="O" horiz-adv-x="1550" 
d="M776 -37q-154 0 -294 60t-241 161t-161 240.5t-60 292.5t60 292.5t161 240.5t241 160.5t294 59.5q153 0 292.5 -59.5t240.5 -160.5t161 -240.5t60 -292.5t-60 -292.5t-161 -240.5t-240.5 -161t-292.5 -60zM432 715q0 -140 101 -241t245 -101q141 0 241.5 101t100.5 241
q0 144 -100.5 245t-241.5 101q-145 0 -245.5 -100.5t-100.5 -245.5z" />
    <glyph glyph-name="P" unicode="P" horiz-adv-x="1320" 
d="M655 457h-143q1 -100 6 -174t16.5 -140.5t34 -101.5t54.5 -35v-6h-611v6q63 0 87 128t24 347v471q0 219 -24 347t-87 128v7h611q152 0 270 -23.5t196 -64.5t128.5 -101t72 -128t21.5 -150q0 -256 -173 -383t-483 -127zM512 809q87 -23 182 -23q87 0 147 40.5t60 113.5
q0 139 -227 139q-60 0 -162 -14v-256z" />
    <glyph glyph-name="Q" unicode="Q" horiz-adv-x="1550" 
d="M778 373q141 0 241.5 101t100.5 241q0 144 -100.5 245t-241.5 101q-145 0 -245.5 -100.5t-100.5 -245.5q0 -140 101 -241t245 -101zM20 717q0 153 60 292.5t161 240.5t241 160.5t294 59.5q153 0 292.5 -59.5t240.5 -160.5t161 -240.5t60 -292.5q0 -206 -103.5 -380.5
t-275.5 -273.5q102 -9 179.5 -33t127 -67t49.5 -100l-2 -320l-4 2q0 38 -38 72.5t-114.5 64.5t-210.5 48t-307 18h-155v221q-137 18 -258.5 84.5t-209 165t-138 228.5t-50.5 270z" />
    <glyph glyph-name="R" unicode="R" horiz-adv-x="1429" 
d="M655 432h-143q4 -426 111 -426v-6h-611v6q63 0 87 128t24 347v471q0 219 -24 347t-87 128v7h662q170 0 295.5 -35.5t199 -100t108 -146.5t34.5 -185q0 -146 -65.5 -256.5t-182.5 -178.5q161 -307 213 -389q89 -134 147 -137v-6h-610v6q63 0 -2 160q-28 69 -125 266h-31z
M512 788q37 -7 83.5 -9t101.5 4.5t99.5 22.5t74.5 50.5t30 83.5q0 139 -227 139q-60 0 -162 -14v-277z" />
    <glyph glyph-name="S" unicode="S" horiz-adv-x="1198" 
d="M600 1059q-85 0 -120.5 -12.5t-35.5 -42.5q0 -12 3.5 -19.5t15.5 -15.5t26 -14t44 -16t61 -19.5t84.5 -28t107.5 -37.5q48 -17 83 -31.5t77.5 -36t72 -44t59.5 -54.5t48 -68.5t29.5 -84t11.5 -103.5q0 -97 -33 -180t-97.5 -148.5t-170 -103t-241.5 -37.5
q-126 0 -228.5 16t-164.5 40t-104 54t-58.5 55.5t-16.5 47.5v402h6q0 -48 68 -95.5t176.5 -77.5t218.5 -30q238 0 238 86q0 19 -10.5 31.5t-42 24t-66 20.5t-105.5 28.5t-137 40.5q-196 62 -282 166.5t-86 251.5q0 89 33.5 167t100.5 141.5t179 100.5t256 37q123 0 232 -36
t178 -104.5t69 -153.5v-320h-6q0 78 -133 140.5t-340 62.5z" />
    <glyph glyph-name="T" unicode="T" horiz-adv-x="1290" 
d="M1284 1454q-41 -32 -54 -108t-13 -230v-182h-7q0 101 -370 108v-90v-471q0 -220 23.5 -347.5t86.5 -127.5v-6h-610v6q63 0 87 128t24 347v471v90q-371 -7 -371 -108h-6v182q0 153 -13 229.5t-55 108.5l4 4q10 -7 21.5 -11.5t29.5 -7t33.5 -4t45 -2t51.5 -0.5t66.5 0.5
t76.5 0.5h622q32 0 76.5 -0.5t66.5 -0.5t51.5 0.5t45 2t33.5 4t29.5 7t21.5 11.5z" />
    <glyph glyph-name="U" unicode="U" horiz-adv-x="1490" 
d="M868 1434h611v-7q-63 0 -87 -128t-24 -347v-344q0 -148 -35.5 -264.5t-109.5 -202.5t-195 -132t-283 -46t-283 46t-194.5 132t-109 202.5t-35.5 264.5v344q0 219 -24 347t-87 128v7h611v-7q-63 0 -87 -128t-24 -347v-202q0 -84 11 -148.5t37 -116t72.5 -79t112.5 -27.5
t113 27.5t72.5 79t37 116t11.5 148.5v202q0 219 -24 347t-87 128v7z" />
    <glyph glyph-name="V" unicode="V" horiz-adv-x="1654" 
d="M649 1427q-33 0 -45.5 -37t-6.5 -96.5t21 -124.5t37 -131l172 -497l172 497q23 65 38 130.5t21.5 125t-6.5 96.5t-46 37v7h643v-7q-22 0 -44.5 -16.5t-45 -53t-41.5 -73t-43 -99.5t-40.5 -109.5t-43.5 -123.5l-162 -471q-24 -70 -44.5 -143.5t-36 -152.5t-9 -129
t38.5 -50v-6h-701v6q32 0 38.5 50t-9 129t-36 152.5t-44.5 143.5l-162 471q-27 77 -43.5 123.5t-40.5 109.5t-43 99.5t-41.5 73t-45 53t-44.5 16.5v7h643v-7z" />
    <glyph glyph-name="W" unicode="W" horiz-adv-x="2582" 
d="M963 1427v7h657v-7q-33 0 -45 -36.5t-5.5 -97.5t21 -124t35.5 -131l152 -487l149 487q21 68 35.5 131t21 124t-5.5 97.5t-45 36.5v7h643v-7q-76 0 -122 -77q-32 -55 -86 -233q-2 -5 -5 -17q-5 -16 -8 -25l-178 -594q-24 -82 -40 -145.5t-32.5 -148.5t-9.5 -133t39 -48v-6
h-715v6q32 0 39 48t-9.5 133t-32.5 148.5t-40 145.5l-84 283l-86 -283q-24 -82 -40 -145.5t-32.5 -148.5t-9.5 -133t39 -48v-6h-714v6q32 0 39 48t-9.5 133t-32.5 148.5t-40 145.5l-142 471q-144 475 -258 475v7h643v-7q-33 0 -45 -36.5t-5.5 -97.5t21 -124t35.5 -131
l152 -487l149 487q14 44 25 86t20 87.5t12 83t0.5 68t-15.5 47.5t-35 17z" />
    <glyph glyph-name="X" unicode="X" horiz-adv-x="1748" 
d="M821 1427q-60 0 -55 -65q4 -74 88 -197l68 -100l114 186q24 39 36.5 70.5t14.5 50.5t-3 32t-12.5 18t-16.5 5v7h686v-7q-124 0 -324 -321l-252 -408l267 -397q107 -160 179 -227.5t130 -67.5v-6h-713v6q16 0 26.5 8t13.5 23.5t-0.5 36.5t-16 49t-33.5 59l-160 238
l-145 -238q-24 -39 -36.5 -70.5t-14.5 -50.5t3 -32t12.5 -18t16.5 -5v-6h-686v6q59 0 137.5 74t186.5 248l282 458l-110 166q-315 475 -430 475v7h747v-7z" />
    <glyph glyph-name="Y" unicode="Y" horiz-adv-x="1613" 
d="M1001 481q0 -219 24 -347t87 -128v-6h-610v6q63 0 86.5 127.5t23.5 347.5v86l-225 385q-56 97 -102.5 170t-100.5 148t-99.5 116t-78.5 41v7h643v-7q-22 0 -29 -18t2 -51t23.5 -70t39.5 -84.5t45.5 -85t45.5 -80.5l31 -53l31 53q25 43 45.5 80.5t45.5 85t39.5 84.5
t23.5 70t2 51t-29 18v7h643v-7q-33 0 -78.5 -41t-99.5 -116t-100.5 -148t-102.5 -170l-226 -385v-86z" />
    <glyph glyph-name="Z" unicode="Z" horiz-adv-x="1290" 
d="M1284 1454q-42 -32 -54.5 -95.5t-12.5 -211.5v-109l-617 -680h135q219 0 347 24t128 87h7v-182q0 -148 12.5 -211.5t54.5 -95.5l-4 -5q-10 7 -21.5 11.5t-30 7t-32.5 4t-45.5 2t-51.5 0.5h-66.5h-76.5h-622h-76.5h-66.5t-51.5 -0.5t-45.5 -2t-32.5 -4t-30 -7t-21.5 -11.5
l-4 5q42 32 55 96t13 211v61l655 727h-174q-220 0 -347.5 -23.5t-127.5 -86.5h-6v182q0 147 -13 211t-55 96l4 4q10 -7 21.5 -11.5t29.5 -7t33.5 -4t45 -2t51.5 -0.5t66.5 0.5t76.5 0.5h622q32 0 76.5 -0.5t66.5 -0.5t51.5 0.5t45 2t33.5 4t29.5 7t21.5 11.5z" />
    <glyph glyph-name="backslash" unicode="\" 
 />
    <glyph glyph-name="asciicircum" unicode="^" 
 />
    <glyph glyph-name="underscore" unicode="_" 
 />
    <glyph glyph-name="a" unicode="a" 
 />
    <glyph glyph-name="b" unicode="b" 
 />
    <glyph glyph-name="c" unicode="c" 
 />
    <glyph glyph-name="d" unicode="d" 
 />
    <glyph glyph-name="e" unicode="e" 
 />
    <glyph glyph-name="f" unicode="f" 
 />
    <glyph glyph-name="g" unicode="g" 
 />
    <glyph glyph-name="h" unicode="h" 
 />
    <glyph glyph-name="i" unicode="i" 
 />
    <glyph glyph-name="j" unicode="j" 
 />
    <glyph glyph-name="k" unicode="k" 
 />
    <glyph glyph-name="l" unicode="l" 
 />
    <glyph glyph-name="m" unicode="m" 
 />
    <glyph glyph-name="n" unicode="n" 
 />
    <glyph glyph-name="o" unicode="o" 
 />
    <glyph glyph-name="p" unicode="p" 
 />
    <glyph glyph-name="q" unicode="q" 
 />
    <glyph glyph-name="r" unicode="r" 
 />
    <glyph glyph-name="s" unicode="s" 
 />
    <glyph glyph-name="t" unicode="t" 
 />
    <glyph glyph-name="u" unicode="u" 
 />
    <glyph glyph-name="v" unicode="v" 
 />
    <glyph glyph-name="w" unicode="w" 
 />
    <glyph glyph-name="x" unicode="x" 
 />
    <glyph glyph-name="y" unicode="y" 
 />
    <glyph glyph-name="z" unicode="z" 
 />
    <glyph glyph-name="exclamdown" unicode="&#xa1;" 
 />
    <glyph glyph-name="periodcentered" unicode="&#xb7;" 
 />
    <glyph glyph-name="questiondown" unicode="&#xbf;" 
 />
    <glyph glyph-name="Agrave" unicode="&#xc0;" horiz-adv-x="1507" 
d="M383 1427v7h741v-7q-114 0 -6 -395l154 -551q21 -75 35.5 -124t34.5 -110t37 -99t37 -73.5t41.5 -52t43.5 -16.5v-6h-635v6q61 0 43 201h-311q-18 -201 43 -201v-6h-635v6q22 0 43.5 16.5t42 51.5t37.5 74t37 99t35 110t35 124l153 551q108 395 -6 395zM655 535h197
l-98 483z" />
    <glyph glyph-name="Aacute" unicode="&#xc1;" horiz-adv-x="1492" 
d="M1257 481q20 -74 35 -124t35 -110t37 -99t37.5 -74t42 -51.5t43.5 -16.5v-6h-647v6q47 0 47 113q0 41 -6 88h-271q-18 -201 43 -201v-6h-647v6q22 0 43.5 16.5t42 51.5t37.5 74t37 99t35 110t35 124l153 551q108 395 -6 395v7h297q56 90 104.5 131t106.5 41h350v-7
q-101 0 -155 -63t-54 -160q0 -76 37 -217zM668 535h157l-77 387z" />
    <glyph glyph-name="Acircumflex" unicode="&#xc2;" horiz-adv-x="1507" 
d="M383 1427v7h741v-7q-114 0 -6 -395l154 -551q21 -75 35.5 -124t34.5 -110t37 -99t37 -73.5t41.5 -52t43.5 -16.5v-6h-635v6q61 0 43 201h-311q-18 -201 43 -201v-6h-635v6q22 0 43.5 16.5t42 51.5t37.5 74t37 99t35 110t35 124l153 551q108 395 -6 395zM655 535h197
l-98 483z" />
    <glyph glyph-name="Atilde" unicode="&#xc3;" horiz-adv-x="1507" 
d="M383 1427v7h741v-7q-114 0 -6 -395l154 -551q21 -75 35.5 -124t34.5 -110t37 -99t37 -73.5t41.5 -52t43.5 -16.5v-6h-635v6q61 0 43 201h-311q-18 -201 43 -201v-6h-635v6q22 0 43.5 16.5t42 51.5t37.5 74t37 99t35 110t35 124l153 551q108 395 -6 395zM655 535h197
l-98 483z" />
    <glyph glyph-name="Adieresis" unicode="&#xc4;" horiz-adv-x="1507" 
d="M6 0v6q22 0 43.5 16.5t42 51.5t37.5 74t37 99t35 110t35 124l153 551q42 146 51 248q-61 22 -99 75t-38 120q0 84 59.5 143t145.5 59t144.5 -59t58.5 -143q0 -17 -4 -41h73q-4 24 -4 41q0 84 59.5 143t145.5 59t144.5 -59t58.5 -143q0 -63 -32.5 -113.5t-86.5 -73.5
q8 -97 53 -256l154 -551q21 -75 35.5 -124t34.5 -110t37 -99t37 -73.5t41.5 -52t43.5 -16.5v-6h-635v6q61 0 43 201h-311q-18 -201 43 -201v-6h-635zM655 535h197l-98 483z" />
    <glyph glyph-name="Aring" unicode="&#xc5;" horiz-adv-x="1507" 
d="M383 1427v7h741v-7q-114 0 -6 -395l154 -551q21 -75 35.5 -124t34.5 -110t37 -99t37 -73.5t41.5 -52t43.5 -16.5v-6h-635v6q61 0 43 201h-311q-18 -201 43 -201v-6h-635v6q22 0 43.5 16.5t42 51.5t37.5 74t37 99t35 110t35 124l153 551q108 395 -6 395zM655 535h197
l-98 483z" />
    <glyph glyph-name="AE" unicode="&#xc6;" 
 />
    <glyph glyph-name="Ccedilla" unicode="&#xc7;" horiz-adv-x="1150" 
d="M436 717q0 -163 103 -252.5t266 -89.5q138 0 223.5 62t85.5 141h6v-433q0 -18 -25.5 -47t-72 -60t-126.5 -53t-173 -22q-148 0 -274.5 49t-221 141.5t-149.5 235t-58 320.5q0 182 54.5 328t150 240t222 143.5t272.5 49.5q95 0 176 -22t127.5 -53t72 -60t25.5 -47v-432h-6
q0 79 -85 141t-222 62q-165 0 -268 -90.5t-103 -251.5z" />
    <glyph glyph-name="Egrave" unicode="&#xc8;" horiz-adv-x="1159" 
d="M1004 989h6v-477h-6q0 44 -50 61t-172 17h-266v-201h248q338 0 338 119h6v-524q-16 16 -287 16h-434h-77.5t-67 0.5t-53.5 0t-46 -1t-36 -1.5t-31 -3t-23 -4.5t-20.5 -6.5t-16.5 -9l-4 5q60 47 87.5 157t27.5 344v471q0 219 -24 347t-87 128v7h420q-52 80 -98.5 122.5
t-99.5 42.5v7h350q61 0 111 -40t104 -132h18q267 0 287 16v-463h-6q0 57 -117 57h-469v-126h266q222 0 222 71z" />
    <glyph glyph-name="Eacute" unicode="&#xc9;" horiz-adv-x="1159" 
d="M1004 989h6v-477h-6q0 44 -50 61t-172 17h-266v-201h248q338 0 338 119h6v-524q-16 16 -287 16h-434h-77.5t-67 0.5t-53.5 0t-46 -1t-36 -1.5t-31 -3t-23 -4.5t-20.5 -6.5t-16.5 -9l-4 5q60 47 87.5 157t27.5 344v471q0 219 -24 347t-87 128v7h406q54 92 104 132t111 40
h350v-7q-53 0 -100 -42.5t-99 -122.5h33q267 0 287 16v-463h-6q0 57 -117 57h-469v-126h266q222 0 222 71z" />
    <glyph glyph-name="Ecircumflex" unicode="&#xca;" horiz-adv-x="1159" 
d="M1004 989h6v-477h-6q0 44 -50 61t-172 17h-266v-201h248q338 0 338 119h6v-524q-16 16 -287 16h-434h-77.5t-67 0.5t-53.5 0t-46 -1t-36 -1.5t-31 -3t-23 -4.5t-20.5 -6.5t-16.5 -9l-4 5q60 47 87.5 157t27.5 344v471q0 219 -24 347t-87 128v7h805q267 0 287 16v-463h-6
q0 57 -117 57h-469v-126h266q222 0 222 71z" />
    <glyph glyph-name="Edieresis" unicode="&#xcb;" horiz-adv-x="1159" 
d="M1004 989h6v-477h-6q0 44 -50 61t-172 17h-266v-201h248q338 0 338 119h6v-524q-16 16 -287 16h-434h-77.5t-67 0.5t-53.5 0t-46 -1t-36 -1.5t-31 -3t-23 -4.5t-20.5 -6.5t-16.5 -9l-4 5q60 47 87.5 157t27.5 344v471q0 219 -24 347t-87 128v7h160q-4 24 -4 41
q0 84 59.5 143t145.5 59t144.5 -59t58.5 -143q0 -11 -5 -41h74q-4 24 -4 41q0 84 59.5 143t145.5 59t144.5 -59t58.5 -143q0 -23 -2 -35q24 2 38 4.5t17 3.5l2 2v-463h-6q0 57 -117 57h-469v-126h266q222 0 222 71z" />
    <glyph glyph-name="Igrave" unicode="&#xcc;" horiz-adv-x="634" 
d="M623 1427q-63 0 -87 -128t-24 -347v-471q0 -219 24 -347t87 -128v-6h-611v6q63 0 87 128t24 347v471q0 219 -24 347t-87 128v7h611v-7z" />
    <glyph glyph-name="Iacute" unicode="&#xcd;" horiz-adv-x="634" 
d="M623 1427q-63 0 -87 -128t-24 -347v-471q0 -219 24 -347t87 -128v-6h-611v6q63 0 87 128t24 347v471q0 219 -24 347t-87 128v7h115q54 92 104 132t111 40h350v-7q-53 0 -99.5 -42.5t-98.5 -122.5h129v-7z" />
    <glyph glyph-name="Icircumflex" unicode="&#xce;" horiz-adv-x="634" 
d="M623 1427q-63 0 -87 -128t-24 -347v-471q0 -219 24 -347t87 -128v-6h-611v6q63 0 87 128t24 347v471q0 219 -24 347t-87 128v7h611v-7z" />
    <glyph glyph-name="Idieresis" unicode="&#xcf;" horiz-adv-x="634" 
d="M82 1270q-86 0 -145.5 59.5t-59.5 145.5q0 84 59.5 143t145.5 59t144.5 -59t58.5 -143q0 -17 -4 -41h73q-4 24 -4 41q0 84 59.5 143t145.5 59t144.5 -59t58.5 -143q0 -86 -58.5 -145.5t-144.5 -59.5l-25 2q-18 -111 -18 -320v-471q0 -219 24 -347t87 -128v-6h-611v6
q63 0 87 128t24 347v471q0 203 -19 320q-8 -2 -22 -2z" />
    <glyph glyph-name="Eth" unicode="&#xd0;" horiz-adv-x="1359" 
d="M731 926h6v-418h-6q0 35 -27 50t-88 15h-71v-182h10q163 0 266 85.5t103 240.5q0 153 -103.5 239t-267.5 86h-8v-182h71q60 0 87.5 15.5t27.5 50.5zM0 508v418h6q0 -35 27.5 -50.5t87.5 -15.5h35v92q0 219 -24 347t-87 128v7h490q379 0 594.5 -192t209.5 -533
q-6 -334 -216.5 -521.5t-587.5 -187.5h-490v6q63 0 87 128t24 347v92h-35q-61 0 -88 -15t-27 -50h-6z" />
    <glyph glyph-name="Ntilde" unicode="&#xd1;" horiz-adv-x="1495" 
d="M516 481q0 -219 24 -347t87 -128v-6h-385q-117 0 -158.5 -4t-67.5 -21l-4 5q60 47 87.5 157t27.5 344v471q0 219 -24 347t-87 128v7h627l2 -7q-25 0 -30 -16t15 -61t54 -104.5t100 -168.5l199 -325v200q0 219 -24 347t-87 128v7h611v-7q-63 0 -87 -128t-24 -347v-471
q0 -219 24 -347t87 -128v-6h-611v6q52 0 52 49q0 16 -7 39t-23.5 57t-34 66.5t-48.5 85.5t-56 95t-68 113t-73 122l-98 166v-318z" />
    <glyph glyph-name="Ograve" unicode="&#xd2;" horiz-adv-x="1550" 
d="M776 -37q-154 0 -294 60t-241 161t-161 240.5t-60 292.5t60 292.5t161 240.5t241 160.5t294 59.5q153 0 292.5 -59.5t240.5 -160.5t161 -240.5t60 -292.5t-60 -292.5t-161 -240.5t-240.5 -161t-292.5 -60zM432 715q0 -140 101 -241t245 -101q141 0 241.5 101t100.5 241
q0 144 -100.5 245t-241.5 101q-145 0 -245.5 -100.5t-100.5 -245.5z" />
    <glyph glyph-name="Oacute" unicode="&#xd3;" horiz-adv-x="1550" 
d="M776 -37q-154 0 -294 60t-241 161t-161 240.5t-60 292.5q0 263 162 466.5t412 264.5q53 84 101 121t106 37h350v-7q-50 0 -95.5 -39t-94.5 -112q249 -64 409 -267t160 -464q0 -153 -60 -292.5t-161 -240.5t-240.5 -161t-292.5 -60zM432 715q0 -140 101 -241t245 -101
q141 0 241.5 101t100.5 241q0 144 -100.5 245t-241.5 101q-145 0 -245.5 -100.5t-100.5 -245.5z" />
    <glyph glyph-name="Ocircumflex" unicode="&#xd4;" horiz-adv-x="1550" 
d="M776 -37q-154 0 -294 60t-241 161t-161 240.5t-60 292.5t60 292.5t161 240.5t241 160.5t294 59.5q153 0 292.5 -59.5t240.5 -160.5t161 -240.5t60 -292.5t-60 -292.5t-161 -240.5t-240.5 -161t-292.5 -60zM432 715q0 -140 101 -241t245 -101q141 0 241.5 101t100.5 241
q0 144 -100.5 245t-241.5 101q-145 0 -245.5 -100.5t-100.5 -245.5z" />
    <glyph glyph-name="Otilde" unicode="&#xd5;" horiz-adv-x="1550" 
d="M776 -37q-154 0 -294 60t-241 161t-161 240.5t-60 292.5t60 292.5t161 240.5t241 160.5t294 59.5q153 0 292.5 -59.5t240.5 -160.5t161 -240.5t60 -292.5t-60 -292.5t-161 -240.5t-240.5 -161t-292.5 -60zM432 715q0 -140 101 -241t245 -101q141 0 241.5 101t100.5 241
q0 144 -100.5 245t-241.5 101q-145 0 -245.5 -100.5t-100.5 -245.5z" />
    <glyph glyph-name="Odieresis" unicode="&#xd6;" horiz-adv-x="1550" 
d="M776 -37q-154 0 -294 60t-241 161t-161 240.5t-60 292.5q0 197 96 366t257 271q-37 56 -37 121q0 84 59.5 143t145.5 59t144 -59t58 -143v-5h33h33v5q0 84 59.5 143t145.5 59t144.5 -59t58.5 -143q0 -68 -37 -121q161 -101 255.5 -270t94.5 -367q0 -153 -60 -292.5
t-161 -240.5t-240.5 -161t-292.5 -60zM432 715q0 -140 101 -241t245 -101q141 0 241.5 101t100.5 241q0 144 -100.5 245t-241.5 101q-145 0 -245.5 -100.5t-100.5 -245.5z" />
    <glyph glyph-name="Oslash" unicode="&#xd8;" horiz-adv-x="1550" 
d="M776 -37q-154 0 -294 60t-241 161t-161 240.5t-60 292.5t60 292.5t161 240.5t241 160.5t294 59.5q153 0 292.5 -59.5t240.5 -160.5t161 -240.5t60 -292.5t-60 -292.5t-161 -240.5t-240.5 -161t-292.5 -60zM432 715q0 -140 101 -241t245 -101q141 0 241.5 101t100.5 241
q0 144 -100.5 245t-241.5 101q-145 0 -245.5 -100.5t-100.5 -245.5z" />
    <glyph glyph-name="Ugrave" unicode="&#xd9;" horiz-adv-x="1490" 
d="M868 1434h611v-7q-63 0 -87 -128t-24 -347v-344q0 -148 -35.5 -264.5t-109.5 -202.5t-195 -132t-283 -46t-283 46t-194.5 132t-109 202.5t-35.5 264.5v344q0 219 -24 347t-87 128v7h611v-7q-63 0 -87 -128t-24 -347v-202q0 -84 11 -148.5t37 -116t72.5 -79t112.5 -27.5
t113 27.5t72.5 79t37 116t11.5 148.5v202q0 219 -24 347t-87 128v7z" />
    <glyph glyph-name="Uacute" unicode="&#xda;" horiz-adv-x="1490" 
d="M555 1434q54 92 104 132t111 40h350v-7q-53 0 -99.5 -42.5t-98.5 -122.5h557v-7q-63 0 -87 -128t-24 -347v-344q0 -148 -35.5 -264.5t-109.5 -202.5t-195 -132t-283 -46t-283 46t-194.5 132t-109 202.5t-35.5 264.5v344q0 219 -24 347t-87 128v7h543zM512 750
q0 -84 11 -148.5t37 -116t72.5 -79t112.5 -27.5t113 27.5t72.5 79t37 116t11.5 148.5v202q0 392 -72 459l-24 -41l-312 27q-59 -87 -59 -445v-202z" />
    <glyph glyph-name="Ucircumflex" unicode="&#xdb;" horiz-adv-x="1490" 
d="M868 1434h611v-7q-63 0 -87 -128t-24 -347v-344q0 -148 -35.5 -264.5t-109.5 -202.5t-195 -132t-283 -46t-283 46t-194.5 132t-109 202.5t-35.5 264.5v344q0 219 -24 347t-87 128v7h611v-7q-63 0 -87 -128t-24 -347v-202q0 -84 11 -148.5t37 -116t72.5 -79t112.5 -27.5
t113 27.5t72.5 79t37 116t11.5 148.5v202q0 219 -24 347t-87 128v7z" />
    <glyph glyph-name="Udieresis" unicode="&#xdc;" horiz-adv-x="1490" 
d="M868 1434h611v-7q-63 0 -87 -128t-24 -347v-344q0 -148 -35.5 -264.5t-109.5 -202.5t-195 -132t-283 -46t-283 46t-194.5 132t-109 202.5t-35.5 264.5v344q0 219 -24 347t-87 128v7h611v-7q-63 0 -87 -128t-24 -347v-202q0 -84 11 -148.5t37 -116t72.5 -79t112.5 -27.5
t113 27.5t72.5 79t37 116t11.5 148.5v202q0 219 -24 347t-87 128v7z" />
    <glyph glyph-name="Yacute" unicode="&#xdd;" horiz-adv-x="1613" 
d="M1001 481q0 -219 24 -347t87 -128v-6h-610v6q63 0 86.5 127.5t23.5 347.5v86l-225 385q-56 97 -102.5 170t-100.5 148t-99.5 116t-78.5 41v7h643v-7q-22 0 -29 -18t2 -51t23.5 -70t39.5 -84.5t45.5 -85t45.5 -80.5l31 -53l31 53q25 43 45.5 80.5t45.5 85t39.5 84.5
t23.5 70t2 51t-29 18v7h643v-7q-33 0 -78.5 -41t-99.5 -116t-100.5 -148t-102.5 -170l-226 -385v-86z" />
    <glyph glyph-name="Thorn" unicode="&#xde;" 
 />
    <glyph glyph-name="germandbls" unicode="&#xdf;" 
 />
    <glyph glyph-name="agrave" unicode="&#xe0;" 
 />
    <glyph glyph-name="aacute" unicode="&#xe1;" 
 />
    <glyph glyph-name="acircumflex" unicode="&#xe2;" 
 />
    <glyph glyph-name="atilde" unicode="&#xe3;" 
 />
    <glyph glyph-name="adieresis" unicode="&#xe4;" 
 />
    <glyph glyph-name="aring" unicode="&#xe5;" 
 />
    <glyph glyph-name="ae" unicode="&#xe6;" 
 />
    <glyph glyph-name="ccedilla" unicode="&#xe7;" 
 />
    <glyph glyph-name="egrave" unicode="&#xe8;" 
 />
    <glyph glyph-name="eacute" unicode="&#xe9;" 
 />
    <glyph glyph-name="ecircumflex" unicode="&#xea;" 
 />
    <glyph glyph-name="edieresis" unicode="&#xeb;" 
 />
    <glyph glyph-name="igrave" unicode="&#xec;" 
 />
    <glyph glyph-name="iacute" unicode="&#xed;" 
 />
    <glyph glyph-name="icircumflex" unicode="&#xee;" 
 />
    <glyph glyph-name="idieresis" unicode="&#xef;" 
 />
    <glyph glyph-name="eth" unicode="&#xf0;" 
 />
    <glyph glyph-name="ntilde" unicode="&#xf1;" 
 />
    <glyph glyph-name="ograve" unicode="&#xf2;" 
 />
    <glyph glyph-name="oacute" unicode="&#xf3;" 
 />
    <glyph glyph-name="ocircumflex" unicode="&#xf4;" 
 />
    <glyph glyph-name="otilde" unicode="&#xf5;" 
 />
    <glyph glyph-name="odieresis" unicode="&#xf6;" 
 />
    <glyph glyph-name="oslash" unicode="&#xf8;" 
 />
    <glyph glyph-name="ugrave" unicode="&#xf9;" 
 />
    <glyph glyph-name="uacute" unicode="&#xfa;" 
 />
    <glyph glyph-name="ucircumflex" unicode="&#xfb;" 
 />
    <glyph glyph-name="udieresis" unicode="&#xfc;" 
 />
    <glyph glyph-name="yacute" unicode="&#xfd;" 
 />
    <glyph glyph-name="thorn" unicode="&#xfe;" 
 />
    <glyph glyph-name="ydieresis" unicode="&#xff;" 
 />
    <glyph glyph-name="Hbar" unicode="&#x126;" horiz-adv-x="1533" 
d="M1507 1341h6v-417h-6q0 35 -27 50t-87 15h-17v-37v-471q0 -219 24 -347t87 -128v-6h-359q-133 0 -178.5 -3.5t-72.5 -21.5l-5 5q60 47 87.5 157t27.5 344v99h-475v-99q0 -219 24 -347t87 -128v-6h-611v6q63 0 87 128t24 347v471v37h-17q-60 0 -87 -15t-27 -50h-6v417h6
q0 -35 26.5 -50t85.5 -15q-26 151 -92 151v7h611v-7q-67 0 -93 -151h439q-26 151 -92 151v7h610v-7q-66 0 -92 -151q59 0 85.5 15t26.5 50zM512 928h475v24v37h-475v-37v-24z" />
    <glyph glyph-name="OE" unicode="&#x152;" horiz-adv-x="2291" 
d="M2136 989h6v-477h-6q0 44 -50 61t-171 17h-395q-30 -176 -135.5 -319.5t-265.5 -225.5t-343 -82q-154 0 -294 60t-241 161t-161 240.5t-60 292.5t60 292.5t161 240.5t241 160.5t294 59.5q257 0 458.5 -155t268.5 -397h412q221 0 221 71zM432 715q0 -140 101 -241
t245 -101q141 0 241.5 101t100.5 241q0 144 -100.5 245t-241.5 101q-145 0 -245.5 -100.5t-100.5 -245.5zM1145 -20q146 86 231.5 186t149.5 223h370q338 0 338 119h7v-524q-16 16 -287 16h-434h-77.5t-67 0.5t-53.5 0t-46 -1t-36 -1.5t-31 -3t-23 -4.5t-20.5 -6.5t-16.5 -9
zM1149 1427v7h805q267 0 287 16v-463h-7q0 57 -116 57h-596q-31 76 -102.5 167t-149 153.5t-121.5 62.5z" />
    <glyph glyph-name="oe" unicode="&#x153;" 
 />
    <glyph glyph-name="Wcircumflex" unicode="&#x174;" horiz-adv-x="2582" 
d="M963 1427v7h657v-7q-33 0 -45 -36.5t-5.5 -97.5t21 -124t35.5 -131l152 -487l149 487q21 68 35.5 131t21 124t-5.5 97.5t-45 36.5v7h643v-7q-76 0 -122 -77q-32 -55 -86 -233q-2 -5 -5 -17q-5 -16 -8 -25l-178 -594q-24 -82 -40 -145.5t-32.5 -148.5t-9.5 -133t39 -48v-6
h-715v6q32 0 39 48t-9.5 133t-32.5 148.5t-40 145.5l-84 283l-86 -283q-24 -82 -40 -145.5t-32.5 -148.5t-9.5 -133t39 -48v-6h-714v6q32 0 39 48t-9.5 133t-32.5 148.5t-40 145.5l-142 471q-144 475 -258 475v7h643v-7q-33 0 -45 -36.5t-5.5 -97.5t21 -124t35.5 -131
l152 -487l149 487q14 44 25 86t20 87.5t12 83t0.5 68t-15.5 47.5t-35 17z" />
    <glyph glyph-name="wcircumflex" unicode="&#x175;" 
 />
    <glyph glyph-name="Ycircumflex" unicode="&#x176;" horiz-adv-x="1613" 
d="M1001 481q0 -219 24 -347t87 -128v-6h-610v6q63 0 86.5 127.5t23.5 347.5v86l-225 385q-56 97 -102.5 170t-100.5 148t-99.5 116t-78.5 41v7h643v-7q-22 0 -29 -18t2 -51t23.5 -70t39.5 -84.5t45.5 -85t45.5 -80.5l31 -53l31 53q25 43 45.5 80.5t45.5 85t39.5 84.5
t23.5 70t2 51t-29 18v7h643v-7q-33 0 -78.5 -41t-99.5 -116t-100.5 -148t-102.5 -170l-226 -385v-86z" />
    <glyph glyph-name="ycircumflex" unicode="&#x177;" 
 />
    <glyph glyph-name="Ydieresis" unicode="&#x178;" horiz-adv-x="1613" 
d="M1001 481q0 -219 24 -347t87 -128v-6h-610v6q63 0 86.5 127.5t23.5 347.5v86l-225 385q-56 97 -102.5 170t-100.5 148t-99.5 116t-78.5 41v7h643v-7q-22 0 -29 -18t2 -51t23.5 -70t39.5 -84.5t45.5 -85t45.5 -80.5l31 -53l31 53q25 43 45.5 80.5t45.5 85t39.5 84.5
t23.5 70t2 51t-29 18v7h643v-7q-33 0 -78.5 -41t-99.5 -116t-100.5 -148t-102.5 -170l-226 -385v-86z" />
    <glyph glyph-name="gravecomb" unicode="&#x300;" horiz-adv-x="0" 
d="M258 1370q-66 112 -120.5 170.5t-117.5 58.5v7h351q61 0 111 -40t104 -132l20 -35z" />
    <glyph glyph-name="acutecomb" unicode="&#x301;" horiz-adv-x="0" 
d="M41 1434q54 92 104 132t111 40h350v-7q-63 0 -116.5 -58t-120.5 -171l-349 29z" />
    <glyph glyph-name="uni0302" unicode="&#x302;" 
 />
    <glyph glyph-name="tildecomb" unicode="&#x303;" 
 />
    <glyph glyph-name="uni0307" unicode="&#x307;" 
 />
    <glyph glyph-name="uni0308" unicode="&#x308;" horiz-adv-x="0" 
d="M225 1249q-86 0 -145.5 59.5t-59.5 145.5q0 84 59.5 143.5t145.5 59.5t144.5 -59.5t58.5 -143.5q0 -86 -58.5 -145.5t-144.5 -59.5zM494 1454q0 84 59 143.5t145 59.5t144.5 -59.5t58.5 -143.5q0 -86 -58.5 -145.5t-144.5 -59.5t-145 59.5t-59 145.5z" />
    <glyph glyph-name="uni030A" unicode="&#x30a;" 
 />
    <glyph glyph-name="uni0327" unicode="&#x327;" 
 />
    <glyph glyph-name="Wgrave" unicode="&#x1e80;" horiz-adv-x="2582" 
d="M963 1427v7h657v-7q-33 0 -45 -36.5t-5.5 -97.5t21 -124t35.5 -131l152 -487l149 487q21 68 35.5 131t21 124t-5.5 97.5t-45 36.5v7h643v-7q-76 0 -122 -77q-32 -55 -86 -233q-2 -5 -5 -17q-5 -16 -8 -25l-178 -594q-24 -82 -40 -145.5t-32.5 -148.5t-9.5 -133t39 -48v-6
h-715v6q32 0 39 48t-9.5 133t-32.5 148.5t-40 145.5l-84 283l-86 -283q-24 -82 -40 -145.5t-32.5 -148.5t-9.5 -133t39 -48v-6h-714v6q32 0 39 48t-9.5 133t-32.5 148.5t-40 145.5l-142 471q-144 475 -258 475v7h643v-7q-33 0 -45 -36.5t-5.5 -97.5t21 -124t35.5 -131
l152 -487l149 487q14 44 25 86t20 87.5t12 83t0.5 68t-15.5 47.5t-35 17z" />
    <glyph glyph-name="wgrave" unicode="&#x1e81;" 
 />
    <glyph glyph-name="Wacute" unicode="&#x1e82;" horiz-adv-x="2582" 
d="M963 1427v7h657v-7q-33 0 -45 -36.5t-5.5 -97.5t21 -124t35.5 -131l152 -487l149 487q21 68 35.5 131t21 124t-5.5 97.5t-45 36.5v7h643v-7q-76 0 -122 -77q-32 -55 -86 -233q-2 -5 -5 -17q-5 -16 -8 -25l-178 -594q-24 -82 -40 -145.5t-32.5 -148.5t-9.5 -133t39 -48v-6
h-715v6q32 0 39 48t-9.5 133t-32.5 148.5t-40 145.5l-84 283l-86 -283q-24 -82 -40 -145.5t-32.5 -148.5t-9.5 -133t39 -48v-6h-714v6q32 0 39 48t-9.5 133t-32.5 148.5t-40 145.5l-142 471q-144 475 -258 475v7h643v-7q-33 0 -45 -36.5t-5.5 -97.5t21 -124t35.5 -131
l152 -487l149 487q14 44 25 86t20 87.5t12 83t0.5 68t-15.5 47.5t-35 17z" />
    <glyph glyph-name="wacute" unicode="&#x1e83;" 
 />
    <glyph glyph-name="Wdieresis" unicode="&#x1e84;" horiz-adv-x="2582" 
d="M963 1427v7h657v-7q-33 0 -45 -36.5t-5.5 -97.5t21 -124t35.5 -131l152 -487l149 487q21 68 35.5 131t21 124t-5.5 97.5t-45 36.5v7h643v-7q-76 0 -122 -77q-32 -55 -86 -233q-2 -5 -5 -17q-5 -16 -8 -25l-178 -594q-24 -82 -40 -145.5t-32.5 -148.5t-9.5 -133t39 -48v-6
h-715v6q32 0 39 48t-9.5 133t-32.5 148.5t-40 145.5l-84 283l-86 -283q-24 -82 -40 -145.5t-32.5 -148.5t-9.5 -133t39 -48v-6h-714v6q32 0 39 48t-9.5 133t-32.5 148.5t-40 145.5l-142 471q-144 475 -258 475v7h643v-7q-33 0 -45 -36.5t-5.5 -97.5t21 -124t35.5 -131
l152 -487l149 487q14 44 25 86t20 87.5t12 83t0.5 68t-15.5 47.5t-35 17z" />
    <glyph glyph-name="wdieresis" unicode="&#x1e85;" 
 />
    <glyph glyph-name="uni1E9E" unicode="&#x1e9e;" 
 />
    <glyph glyph-name="Ygrave" unicode="&#x1ef2;" horiz-adv-x="1613" 
d="M1001 481q0 -219 24 -347t87 -128v-6h-610v6q63 0 86.5 127.5t23.5 347.5v86l-225 385q-56 97 -102.5 170t-100.5 148t-99.5 116t-78.5 41v7h643v-7q-22 0 -29 -18t2 -51t23.5 -70t39.5 -84.5t45.5 -85t45.5 -80.5l31 -53l31 53q25 43 45.5 80.5t45.5 85t39.5 84.5
t23.5 70t2 51t-29 18v7h643v-7q-33 0 -78.5 -41t-99.5 -116t-100.5 -148t-102.5 -170l-226 -385v-86z" />
    <glyph glyph-name="ygrave" unicode="&#x1ef3;" 
 />
    <glyph glyph-name="endash" unicode="&#x2013;" horiz-adv-x="1411" 
d="M16 1022q0 -63 128.5 -87t347.5 -24h428q219 0 347 24t128 87h6v-610h-6q0 63 -127.5 86.5t-347.5 23.5h-428q-220 0 -348 -23.5t-128 -86.5h-6v610h6z" />
    <glyph glyph-name="emdash" unicode="&#x2014;" horiz-adv-x="1759" 
d="M16 1022q0 -63 128.5 -87t347.5 -24h776q219 0 347 24t128 87h6v-610h-6q0 63 -127.5 86.5t-347.5 23.5h-776q-220 0 -348 -23.5t-128 -86.5h-6v610h6z" />
    <glyph glyph-name="bullet" unicode="&#x2022;" 
 />
    <glyph glyph-name="ellipsis" unicode="&#x2026;" 
d="M289 -45q-95 0 -161.5 66t-66.5 161q0 93 66.5 159.5t161.5 66.5q94 0 159.5 -66.5t65.5 -159.5q0 -95 -65 -161t-160 -66z" />
    <glyph glyph-name="a.001" 
 />
    <glyph glyph-name="c.001" 
 />
    <glyph glyph-name="e.001" 
 />
    <glyph glyph-name="i.001" 
 />
    <glyph glyph-name="l.001" 
 />
    <glyph glyph-name="m.001" 
 />
    <glyph glyph-name="s.001" 
 />
    <glyph glyph-name="x.001" 
 />
    <glyph glyph-name="ampersand.ss01" horiz-adv-x="1200" 
d="M844 883q46 0 80.5 -2t76.5 -8.5t71 -20.5t55 -35.5t39.5 -56.5t13.5 -80v-301h-4q0 77 -93 126.5t-274 49.5h-174q-110 0 -165 -23.5t-56 -76.5q2 -50 54.5 -73.5t166.5 -23.5q138 0 201 34t63 108h6v-355q0 -18 -25.5 -47t-71 -60t-125.5 -53t-173 -22
q-236 0 -363 121.5t-127 325.5q0 117 41.5 190t118.5 117q-77 44 -118.5 117t-41.5 190q0 203 127 324.5t363 121.5q93 0 173 -22t125.5 -53t71 -60t25.5 -47v-354h-6q0 74 -63 107.5t-201 33.5q-116 0 -168.5 -23.5t-52.5 -74.5q0 -52 51 -73t170 -21h209z" />
    </font>
</defs>
</svg>
