<?xml version="1.0" standalone="no"?>
<!DOCTYPE svg PUBLIC "-//W3C//DTD SVG 1.1//EN" "http://www.w3.org/Graphics/SVG/1.1/DTD/svg11.dtd" >
<svg xmlns="http://www.w3.org/2000/svg" xmlns:xlink="http://www.w3.org/1999/xlink" version="1.1">
<metadata>
Created by FontForge 20170731 at Tue Dec  1 01:16:47 2020
 By Aleksey,,,
Copyright (c) 2020 by Ligature srl. All rights reserved.
</metadata>
<defs>
<font id="EastmanRoman-Bold" horiz-adv-x="693" >
  <font-face 
    font-family="Eastman Roman"
    font-weight="700"
    font-stretch="normal"
    units-per-em="1000"
    panose-1="0 0 8 0 0 0 0 0 0 0"
    ascent="800"
    descent="-200"
    x-height="553"
    cap-height="700"
    bbox="-843 -248 1532 1146"
    underline-thickness="106"
    underline-position="-306"
    unicode-range="U+0020-F8FF"
  />
<missing-glyph horiz-adv-x="614" 
 />
    <glyph glyph-name=".notdef" horiz-adv-x="614" 
 />
    <glyph glyph-name=".null" horiz-adv-x="0" 
 />
    <glyph glyph-name="nonmarkingreturn" horiz-adv-x="333" 
 />
    <glyph glyph-name="space" unicode=" " horiz-adv-x="293" 
 />
    <glyph glyph-name="exclam" unicode="!" horiz-adv-x="276" 
d="M56 444v257h165v-256l-25 -219h-115zM48 0v156h180v-156h-180z" />
    <glyph glyph-name="quotedbl" unicode="&#x22;" horiz-adv-x="389" 
d="M185 738l-16 -202h-105l-15 202h136zM340 738l-16 -202h-105l-15 202h136z" />
    <glyph glyph-name="numbersign" unicode="#" horiz-adv-x="771" 
d="M722 515v-123h-121l-35 -126h108v-124h-143l-35 -127h-147l35 127h-109l-35 -127h-147l35 127h-79v124h114l35 126h-100v123h134l37 134h148l-37 -134h108l37 134h148l-37 -134h86zM310 266h109l35 126h-109z" />
    <glyph glyph-name="dollar" unicode="$" horiz-adv-x="669" 
d="M577.5 63q-64.5 -55 -170.5 -71v-67h-126v63q-145 8 -245 61l14 146q54 -28 134.5 -45.5t144.5 -17.5q62 0 96.5 14.5t34.5 53.5q0 28 -15 43.5t-43 24.5t-85 20q-94 16 -152.5 39.5t-89 64t-30.5 103.5q0 90 66 144.5t170 68.5v68h126v-67q104 -9 192 -49l-21 -146
q-128 54 -234 54q-57 0 -86.5 -14t-29.5 -52q0 -22 12 -35t39.5 -22t81.5 -19q143 -25 212 -74.5t69 -144.5q0 -89 -64.5 -144z" />
    <glyph glyph-name="percent" unicode="%" horiz-adv-x="1014" 
d="M73 408.5q-48 49.5 -48 131.5t48 131.5t129 49.5t128.5 -49.5t47.5 -130.5q0 -82 -47.5 -132t-128.5 -50t-129 49.5zM245 476.5q16 24.5 16 64.5q0 38 -16 62t-43 24q-28 0 -44 -24t-16 -63t16.5 -63.5t43.5 -24.5t43 24.5zM371 0h-142l413 700h142zM683 42.5
q-48 49.5 -48 131.5t48 131.5t129 49.5t128.5 -49.5t47.5 -130.5q0 -82 -47.5 -132t-128.5 -50t-129 49.5zM855 110.5q16 24.5 16 64.5q0 38 -16 62t-43 24q-28 0 -44 -24t-16 -63t16.5 -63.5t43.5 -24.5t43 24.5z" />
    <glyph glyph-name="ampersand" unicode="&#x26;" horiz-adv-x="818" 
d="M809 335h-95q-8 -47 -28 -96.5t-53 -93.5q60 -28 112 -27l-5 -120q-99 -3 -204 55q-96 -63 -219 -63q-138 0 -203 58.5t-65 155.5q0 91 50 151.5t121 98.5q-3 18 -3 36q0 103 65.5 162.5t178.5 59.5q63 0 107.5 -22t66.5 -57t22 -75q0 -29 -12.5 -56t-37.5 -57h202v-110z
M584 335h-121v110q52 37 52 83q0 43 -68 43q-49 0 -63 -22t-14 -60q0 -66 46.5 -143t118.5 -137q42 51 49 126zM420 134q-49 44 -90 95.5t-68 104.5q-32 -25 -49 -51.5t-17 -62.5q0 -45 33 -71.5t96 -26.5q49 0 95 12z" />
    <glyph glyph-name="quotesingle" unicode="'" horiz-adv-x="234" 
d="M185 738l-16 -202h-105l-15 202h136z" />
    <glyph glyph-name="parenleft" unicode="(" horiz-adv-x="407" 
d="M275 -186q-110 88 -168 206.5t-58 259.5t58 260t168 207l111 -86q-85 -79 -128 -176t-43 -205q0 -109 42.5 -205t128.5 -176z" />
    <glyph glyph-name="parenright" unicode=")" horiz-adv-x="407" 
d="M132 747q110 -88 168 -206.5t58 -260.5q0 -140 -58 -259t-168 -207l-111 85q85 79 127.5 176t42.5 205q0 223 -170 381z" />
    <glyph glyph-name="asterisk" unicode="*" horiz-adv-x="478" 
d="M344 508l-42 -4l31 -28l64 -77l-89 -64l-53 85l-16 37l-17 -37l-53 -85l-90 64l65 77l31 28l-41 4l-97 24l34 105l93 -38l35 -21l-9 41l-6 100h110l-6 -100l-9 -40l35 20l93 38l33 -105z" />
    <glyph glyph-name="plus" unicode="+" horiz-adv-x="506" 
d="M317 387h168v-128h-168v-152h-129v152h-167v128h167v149h129v-149z" />
    <glyph glyph-name="comma" unicode="," horiz-adv-x="276" 
d="M55 -89q33 22 48 41t14 48h-70v156h174q11 -54 11 -103q0 -84 -35.5 -129t-102.5 -75z" />
    <glyph glyph-name="hyphen" unicode="-" horiz-adv-x="423" 
d="M402 294v-128h-381v128h381z" />
    <glyph glyph-name="period" unicode="." horiz-adv-x="276" 
d="M48 0v156h180v-156h-180z" />
    <glyph glyph-name="slash" unicode="/" horiz-adv-x="533" 
d="M163 -97h-154l361 807h155z" />
    <glyph glyph-name="zero" unicode="0" horiz-adv-x="734" 
d="M198 33.5q-72 45.5 -110.5 128t-38.5 189.5q0 105 38.5 187t110.5 128t170 46q97 0 168.5 -45.5t110 -127.5t38.5 -189q0 -106 -38.5 -188t-110.5 -128t-170 -46q-96 0 -168 45.5zM479 186q40 64 40 163q0 67 -18.5 118.5t-53 80.5t-80.5 29q-71 0 -111.5 -63.5
t-40.5 -162.5q0 -67 18.5 -119t53.5 -81t81 -29q71 0 111 64z" />
    <glyph glyph-name="one" unicode="1" horiz-adv-x="403" 
d="M16 674l172 26h139v-700h-166v559l-126 -19z" />
    <glyph glyph-name="two" unicode="2" horiz-adv-x="622" 
d="M27 114l28 21q112 81 177 133.5t110 108t45 105.5q0 47 -31.5 69.5t-86.5 22.5q-39 0 -82 -14t-82 -41l-70 123q55 34 118 52t125 18q78 0 141 -25.5t99.5 -75.5t36.5 -120q0 -69 -35 -128t-92.5 -110t-150.5 -118h286v-135h-536v114z" />
    <glyph glyph-name="three" unicode="3" horiz-adv-x="670" 
d="M165.5 16q-72.5 28 -123.5 79l73 104q35 -30 96 -50.5t107 -20.5q55 0 88.5 25.5t33.5 68.5q0 51 -39 71.5t-107 20.5q-39 0 -89 -5l-1 93l152 159h-255v139h468l9 -108l-180 -163q97 -6 155 -62t58 -145q0 -70 -38 -123.5t-102 -82t-142 -28.5q-91 0 -163.5 28z" />
    <glyph glyph-name="four" unicode="4" horiz-adv-x="686" 
d="M542 262h95v-118h-95v-144h-155v144h-348l-30 89l328 467h205v-438zM387 570l-200 -308h200v308z" />
    <glyph glyph-name="five" unicode="5" horiz-adv-x="670" 
d="M169.5 8q-69.5 20 -120.5 68l64 118q39 -33 94 -50.5t109 -17.5q58 0 93.5 26t35.5 70q0 46 -34 70t-95 24q-36 0 -98.5 -11t-94.5 -22l-36 77l17 340h474v-140h-326l-7 -147q56 25 144 25q63 0 114 -27.5t79.5 -76.5t28.5 -112q0 -67 -36 -120.5t-99.5 -83.5t-142.5 -30
q-94 0 -163.5 20z" />
    <glyph glyph-name="six" unicode="6" horiz-adv-x="700" 
d="M190 28.5q-69 41.5 -105 115.5t-36 171q0 121 38.5 210.5t110 137t168.5 47.5q53 0 102.5 -10.5t103.5 -33.5l-21 -129q-93 44 -160 44q-82 0 -128 -54t-53 -151q8 21 33.5 42.5t65.5 36t87 14.5q117 0 186 -63t69 -172q0 -73 -37.5 -129.5t-104.5 -87t-153 -30.5
q-97 0 -166 41.5zM450.5 158q34.5 31 34.5 81q0 48 -33.5 78t-87.5 30q-60 0 -96 -30.5t-36 -79.5q0 -51 35.5 -80.5t92.5 -29.5q56 0 90.5 31z" />
    <glyph glyph-name="seven" unicode="7" horiz-adv-x="588" 
d="M22 700h527l30 -103l-310 -597h-184l301 565h-364v135z" />
    <glyph glyph-name="eight" unicode="8" horiz-adv-x="697" 
d="M192 14.5q-68 26.5 -105.5 74t-37.5 110.5q0 61 37.5 107.5t99.5 66.5q-50 21 -80.5 60.5t-30.5 87.5q0 56 34.5 99.5t96.5 67.5t143 24t142.5 -24t95.5 -67.5t34 -99.5q0 -48 -30 -87.5t-80 -60.5q62 -20 99.5 -66.5t37.5 -107.5q0 -63 -37.5 -110.5t-105 -74
t-156.5 -26.5t-157 26.5zM421.5 436q27.5 21 27.5 58t-27.5 58t-72.5 21q-46 0 -73.5 -21t-27.5 -58t27.5 -58t73.5 -21q45 0 72.5 21zM439.5 152.5q34.5 24.5 34.5 66.5t-34.5 66.5t-90.5 24.5q-57 0 -91.5 -24.5t-34.5 -66.5t34.5 -66.5t91.5 -24.5q56 0 90.5 24.5z" />
    <glyph glyph-name="nine" unicode="9" horiz-adv-x="700" 
d="M510 671.5q69 -41.5 105 -115.5t36 -171q0 -121 -38.5 -210.5t-110 -137t-168.5 -47.5q-53 0 -102.5 10.5t-103.5 33.5l22 129q91 -44 160 -44q81 0 127 54t53 151q-8 -21 -33.5 -42.5t-65.5 -36t-87 -14.5q-117 0 -186 63t-69 172q0 73 37.5 129.5t104.5 87t153 30.5
q97 0 166 -41.5zM249.5 542q-34.5 -31 -34.5 -81q0 -48 33.5 -78t87.5 -30q60 0 96 30.5t36 79.5q0 51 -35 80.5t-93 29.5q-56 0 -90.5 -31z" />
    <glyph glyph-name="colon" unicode=":" horiz-adv-x="276" 
d="M228 554v-157h-180v157h180zM48 0v156h180v-156h-180z" />
    <glyph glyph-name="semicolon" unicode=";" horiz-adv-x="276" 
d="M228 397h-181v156h181v-156zM55 -89q33 22 48 41t14 48h-70v156h174q11 -54 11 -103q0 -84 -35.5 -129t-102.5 -75z" />
    <glyph glyph-name="less" unicode="&#x3c;" horiz-adv-x="561" 
d="M49 377l405 257l57 -81l-334 -204l334 -204l-53 -82l-409 258v56z" />
    <glyph glyph-name="equal" unicode="=" horiz-adv-x="423" 
d="M402 531v-111h-381v111h381zM402 313v-111h-381v111h381z" />
    <glyph glyph-name="greater" unicode="&#x3e;" horiz-adv-x="560" 
d="M511 323l-404 -257l-58 81l335 204l-335 204l53 82l409 -258v-56z" />
    <glyph glyph-name="question" unicode="?" horiz-adv-x="523" 
d="M197 227q-1 9 -1 25q0 57 23 98t71 72q32 24 48 42t16 42q0 29 -24.5 44.5t-68.5 15.5q-77 0 -180 -64l-56 134q136 76 256 76q72 0 126.5 -23t83.5 -64t29 -95q0 -51 -27.5 -88t-77.5 -77q-45 -37 -62 -64.5t-19 -73.5h-137zM183 0v156h180v-156h-180z" />
    <glyph glyph-name="at" unicode="@" horiz-adv-x="962" 
d="M715.5 664q95.5 -53 146.5 -143t51 -199q0 -74 -25 -131.5t-71 -90t-107 -32.5q-113 0 -141 87q-28 -36 -67 -55.5t-82 -19.5q-58 0 -102.5 26t-68.5 72t-24 105q0 67 28.5 121.5t79 85.5t113.5 31q39 0 78.5 -19.5t64.5 -55.5l13 79l132 -20l-42 -256q-5 -33 -5 -52
q0 -28 11 -42t36 -14q45 0 70.5 52.5t25.5 128.5q0 97 -44 168t-121.5 108.5t-174.5 37.5q-103 0 -184.5 -45t-127.5 -124.5t-46 -180.5q0 -95 42 -170t126 -118.5t205 -45.5h11v-82h-12q-120 3 -223.5 49t-167.5 138.5t-64 228.5q0 119 55.5 217.5t156.5 156t231 57.5
q128 0 223.5 -53zM533.5 229.5q27.5 28.5 27.5 79.5q0 43 -24.5 66.5t-66.5 23.5q-47 0 -75 -30t-28 -80q0 -41 25.5 -64.5t65.5 -23.5q48 0 75.5 28.5z" />
    <glyph glyph-name="A" unicode="A" horiz-adv-x="805" 
d="M796 0h-181l-46 115h-336l-46 -115h-178l290 700h206zM402 533l-115 -286h229z" />
    <glyph glyph-name="B" unicode="B" horiz-adv-x="755" 
d="M679.5 298q36.5 -46 36.5 -108q0 -89 -71.5 -139.5t-195.5 -50.5h-373v700h364q116 0 181.5 -46.5t65.5 -130.5q0 -55 -29 -97.5t-79 -62.5q64 -19 100.5 -65zM245 564v-149h162q111 0 111 75q0 39 -27 56.5t-84 17.5h-162zM426 136q61 0 90 19t29 58q0 41 -30 59.5
t-92 18.5h-178v-155h181z" />
    <glyph glyph-name="C" unicode="C" horiz-adv-x="724" 
d="M237 32q-87 45 -137.5 127.5t-50.5 190.5q0 110 49 192t134.5 126t191.5 44q142 0 270 -87l-73 -130q-95 68 -189 68q-59 0 -106 -25.5t-74 -73.5t-27 -113q0 -66 27.5 -114.5t74.5 -73.5t107 -25q95 0 190 67l72 -130q-126 -88 -265 -88q-107 0 -194 45z" />
    <glyph glyph-name="D" unicode="D" horiz-adv-x="826" 
d="M76 0v700h311q117 0 205 -43t136 -122t48 -184q0 -106 -48 -185.5t-136 -122.5t-205 -43h-311zM379 147q102 0 160.5 54t58.5 149t-58.5 149t-160.5 54h-131v-406h131z" />
    <glyph glyph-name="E" unicode="E" horiz-adv-x="698" 
d="M245 291v-149h411v-142h-580v700h570v-142h-401v-132h355v-135h-355z" />
    <glyph glyph-name="F" unicode="F" horiz-adv-x="663" 
d="M641 700v-143h-393v-168h346v-139h-346v-250h-172v700h565z" />
    <glyph glyph-name="G" unicode="G" horiz-adv-x="778" 
d="M497 381h233l-1 -301q-64 -42 -142 -67t-157 -25q-109 0 -196 46.5t-136 129t-49 185.5q0 111 53.5 193t142.5 126t194 44q141 0 263 -74l-67 -134q-94 59 -194 59q-61 0 -110 -25t-77.5 -73.5t-28.5 -115.5q0 -98 58 -155.5t154 -57.5q46 0 73 7.5t56 22.5v88h-69v127z
" />
    <glyph glyph-name="H" unicode="H" horiz-adv-x="811" 
d="M562 418v282h173v-700h-173v275h-313v-275h-173v700h173v-282h313z" />
    <glyph glyph-name="I" unicode="I" horiz-adv-x="324" 
d="M248 0h-172v700h172v-700z" />
    <glyph glyph-name="J" unicode="J" horiz-adv-x="559" 
d="M113.5 3q-56.5 16 -108.5 47l51 140q79 -53 155 -53q55 0 87.5 32.5t32.5 95.5v294h-121v141h290v-447q0 -83 -37 -143.5t-99.5 -91.5t-139.5 -31q-54 0 -110.5 16z" />
    <glyph glyph-name="K" unicode="K" horiz-adv-x="744" 
d="M425 356l304 -355h-209l-271 316v-317h-172l-1 700h173v-309l263 310h210z" />
    <glyph glyph-name="L" unicode="L" horiz-adv-x="624" 
d="M607 0h-531v700h170v-554h361v-146z" />
    <glyph glyph-name="M" unicode="M" horiz-adv-x="927" 
d="M667 700h174l40 -700h-172l-22 398l-179 -398h-87l-180 398l-22 -398h-173l40 700h176l202 -445z" />
    <glyph glyph-name="N" unicode="N" horiz-adv-x="832" 
d="M248 0h-172v700h159l349 -427v427h172v-700h-154l-354 434v-434z" />
    <glyph glyph-name="O" unicode="O" horiz-adv-x="855" 
d="M232.5 34.5q-86.5 46.5 -135 129t-48.5 186.5t49 186.5t135 129t195 46.5q108 0 194.5 -46.5t135 -129t48.5 -186.5t-49 -186.5t-135 -129t-195 -46.5q-108 0 -194.5 46.5zM531 164.5q45 26.5 70.5 74.5t25.5 111t-25.5 111t-70.5 74.5t-103 26.5t-103.5 -26.5t-71 -74.5
t-25.5 -111t25.5 -111t71 -74.5t103.5 -26.5t103 26.5z" />
    <glyph glyph-name="P" unicode="P" horiz-adv-x="711" 
d="M536.5 669.5q70.5 -30.5 108 -87.5t37.5 -135q0 -79 -38 -136.5t-108.5 -88.5t-166.5 -31h-121v-191h-172v700h294q96 0 166.5 -30.5zM365 331q69 0 106.5 29t37.5 85q0 55 -37.5 83.5t-106.5 28.5h-117v-226h117z" />
    <glyph glyph-name="Q" unicode="Q" horiz-adv-x="856" 
d="M831 137q11 0 45 -2v-134q-79 0 -153.5 -3t-91.5 -4q-136 -6 -203 -6h-1q-108 0 -194.5 46.5t-135 129t-48.5 186.5t49 186.5t135 129t195 46.5q108 0 194.5 -46.5t135 -129t48.5 -186.5q0 -67 -20.5 -125.5t-59.5 -104.5q51 17 105 17zM253.5 239q25.5 -48 71 -74.5
t103.5 -26.5t103 26.5t70.5 74.5t25.5 111t-25.5 111t-70.5 74.5t-103 26.5t-103.5 -26.5t-71 -74.5t-25.5 -111t25.5 -111z" />
    <glyph glyph-name="R" unicode="R" horiz-adv-x="724" 
d="M506 0l-164 216h-94v-216h-172v700h304q146 0 228.5 -64.5t82.5 -178.5q0 -81 -42 -137.5t-121 -82.5l178 -237h-200zM248 557v-203h127q71 0 107.5 24t36.5 76t-37 77.5t-107 25.5h-127z" />
    <glyph glyph-name="S" unicode="S" horiz-adv-x="669" 
d="M170.5 2.5q-75.5 15.5 -134.5 46.5l14 146q54 -28 134.5 -45.5t144.5 -17.5q62 0 96.5 14.5t34.5 53.5q0 28 -15 43.5t-43 24.5t-85 20q-94 16 -152.5 39.5t-89 64t-30.5 103.5q0 69 40.5 118t108.5 74t150 25q141 0 255 -52l-21 -146q-128 54 -234 54q-57 0 -86.5 -14
t-29.5 -52q0 -22 12 -35t39.5 -22t81.5 -19q143 -25 212 -74.5t69 -144.5q0 -71 -41.5 -120.5t-112.5 -74.5t-159 -25q-83 0 -158.5 15.5z" />
    <glyph glyph-name="T" unicode="T" horiz-adv-x="663" 
d="M21 700h621v-147h-225v-553h-173v553h-223v147z" />
    <glyph glyph-name="U" unicode="U" horiz-adv-x="765" 
d="M211 25.5q-73 37.5 -112.5 107.5t-39.5 165v402h173v-402q0 -80 39.5 -122.5t110.5 -42.5q73 0 113 42.5t40 122.5v402h171v-402q0 -95 -39.5 -165t-112.5 -107.5t-172 -37.5q-98 0 -171 37.5z" />
    <glyph glyph-name="V" unicode="V" horiz-adv-x="783" 
d="M497 0h-211l-277 700h182l200 -522h2l200 522h182z" />
    <glyph glyph-name="W" unicode="W" horiz-adv-x="1116" 
d="M778 212l148 488h181l-226 -700h-180l-142 428l-143 -428h-180l-227 700h182l148 -488l142 488h155z" />
    <glyph glyph-name="X" unicode="X" horiz-adv-x="765" 
d="M496 360l254 -360h-200l-166 241l-167 -241h-202l254 362l-237 338h201l151 -223l150 223h201z" />
    <glyph glyph-name="Y" unicode="Y" horiz-adv-x="743" 
d="M552 700h187l-281 -461v-239h-173v242l-281 458h187l181 -318z" />
    <glyph glyph-name="Z" unicode="Z" horiz-adv-x="688" 
d="M659 0h-630v111l386 442h-375v147h613v-110l-387 -443h393v-147z" />
    <glyph glyph-name="bracketleft" unicode="[" horiz-adv-x="366" 
d="M345 -182h-296v924h296v-127h-125v-670h125v-127z" />
    <glyph glyph-name="backslash" unicode="\" horiz-adv-x="533" 
d="M163 710l362 -807h-155l-361 807h154z" />
    <glyph glyph-name="bracketright" unicode="]" horiz-adv-x="366" 
d="M21 742h296v-924h-296v127h125v670h-125v127z" />
    <glyph glyph-name="asciicircum" unicode="^" horiz-adv-x="559" 
d="M279 575l-100 -284l-170 8l173 401h194l174 -401l-171 -8z" />
    <glyph glyph-name="underscore" unicode="_" horiz-adv-x="515" 
d="M509 -33v-81h-515v81h515z" />
    <glyph glyph-name="grave" unicode="`" horiz-adv-x="331" 
d="M281 617l-115 -11l-117 125l156 36z" />
    <glyph glyph-name="a" unicode="a" horiz-adv-x="621" 
d="M498 501.5q68 -63.5 68 -178.5v-323h-165v70q-25 -36 -72 -59t-110 -23q-57 0 -101 22t-68 62t-24 92q0 80 55 127t165 47q79 0 154 -7v4q0 94 -128 94q-93 0 -170 -30l-16 136q98 30 204 30q140 0 208 -63.5zM364 147.5q32 29.5 36 78.5v14q-48 6 -107 6
q-109 0 -109 -67q0 -30 24 -45.5t67 -15.5q57 0 89 29.5z" />
    <glyph glyph-name="b" unicode="b" horiz-adv-x="711" 
d="M228 62v-62h-165v738h165v-246q67 73 180 73q75 0 135.5 -36t95 -101.5t34.5 -148.5q0 -84 -35 -150.5t-95.5 -103.5t-133.5 -37q-113 0 -181 74zM470.5 170.5q37.5 40.5 37.5 107.5q0 64 -38 104.5t-99 40.5q-65 0 -104 -40t-39 -107q0 -62 39 -104t104 -42
q62 0 99.5 40.5z" />
    <glyph glyph-name="c" unicode="c" horiz-adv-x="570" 
d="M184.5 24.5q-68.5 35.5 -108 101t-39.5 151.5q0 85 41 150.5t109.5 101.5t149.5 36q63 0 115.5 -16.5t101.5 -53.5l-67 -119q-36 26 -67.5 37.5t-67.5 11.5q-65 0 -106 -39t-41 -109t41 -109.5t107 -39.5q69 0 136 46l65 -116q-54 -39 -103.5 -54t-113.5 -15
q-84 0 -152.5 35.5z" />
    <glyph glyph-name="d" unicode="d" horiz-adv-x="717" 
d="M174.5 25q-60.5 37 -96 103.5t-35.5 150.5q0 83 35 148.5t95.5 101.5t135.5 36q113 0 180 -73v246h164v-738h-164v62q-68 -74 -181 -74q-73 0 -133.5 37zM450 172q39 42 39 104q0 67 -39 107t-104 40q-61 0 -99.5 -40.5t-38.5 -104.5q0 -67 38 -107.5t100 -40.5
q65 0 104 42z" />
    <glyph glyph-name="e" unicode="e" horiz-adv-x="649" 
d="M203 228q12 -53 52.5 -79.5t103.5 -26.5q38 0 79.5 11t73.5 32l38 -121q-46 -30 -95.5 -43t-109.5 -13q-87 0 -157.5 36.5t-110.5 102.5t-40 150q0 82 38 148t106.5 103t156.5 37q78 0 140.5 -31.5t98 -87t35.5 -124.5q0 -47 -18 -94h-391zM247 404.5
q-33 -27.5 -44 -79.5l247 1q-2 52 -33.5 79t-83.5 27q-53 0 -86 -27.5z" />
    <glyph glyph-name="f" unicode="f" horiz-adv-x="458" 
d="M288 553h167v-136h-167v-417h-166v417h-92v136h92v16q0 96 55.5 147t151.5 51q84 0 145 -17l-15 -125q-41 4 -102 4q-69 0 -69 -76z" />
    <glyph glyph-name="g" unicode="g" horiz-adv-x="647" 
d="M376 149q126 1 185 -39t59 -113q0 -84 -81 -132t-235 -48q-127 0 -193.5 36.5t-66.5 105.5q0 30 18.5 55t48.5 41q-24 15 -36.5 37.5t-12.5 48.5q0 33 18 59t47 42q-65 48 -65 137q0 87 68 137t187 50q72 0 116 -20l148 45l31 -111l-75 -11q18 -17 28 -40.5t10 -49.5
q0 -88 -68 -139t-188 -51q-52 0 -94 9q-11 -11 -11 -26q0 -14 11 -18.5t33 -4.5h118zM247.5 429q-24.5 -17 -24.5 -49q0 -35 24 -53.5t71 -18.5q46 0 70.5 18t24.5 53q0 33 -24 50t-71 17q-46 0 -70.5 -17zM425 -46.5q34 11.5 34 40.5q0 23 -26 30.5t-86 7.5h-122
q-24 -22 -24 -44q0 -27 28.5 -36.5t86.5 -9.5q75 0 109 11.5z" />
    <glyph glyph-name="h" unicode="h" horiz-adv-x="683" 
d="M569.5 504q58.5 -61 58.5 -169v-335h-165v304q0 114 -105 114q-45 0 -79.5 -27t-50.5 -71v-320h-165v738h165v-259q30 40 76 63t106 23q101 0 159.5 -61z" />
    <glyph glyph-name="i" unicode="i" horiz-adv-x="291" 
d="M228 0h-165v553h165v-553zM231 605h-171v129h171v-129z" />
    <glyph glyph-name="j" unicode="j" horiz-adv-x="302" 
d="M-39 -48h51q28 0 44.5 16.5t16.5 46.5v538h166v-538q0 -98 -58 -147.5t-148 -49.5q-40 0 -74 9zM241 605h-171v129h171v-129z" />
    <glyph glyph-name="k" unicode="k" horiz-adv-x="640" 
d="M416 553h209l-246 -273l246 -280h-207l-190 224v-224h-165v738h165v-403z" />
    <glyph glyph-name="l" unicode="l" horiz-adv-x="291" 
d="M228 0h-165v738h165v-738z" />
    <glyph glyph-name="m" unicode="m" horiz-adv-x="1023" 
d="M917.5 504.5q50.5 -60.5 50.5 -167.5v-337h-165v305q0 55 -22.5 84.5t-63.5 29.5t-72.5 -26t-46.5 -67v-326h-165v305q0 114 -84 114q-41 0 -73 -27t-48 -69v-323h-165v553h165v-71q29 39 73 61t101 22q60 0 102.5 -25t66.5 -71q33 44 85.5 70t114.5 26q96 0 146.5 -60.5
z" />
    <glyph glyph-name="n" unicode="n" horiz-adv-x="683" 
d="M569.5 504q58.5 -61 58.5 -169v-335h-165v304q0 114 -105 114q-45 0 -79.5 -27t-50.5 -71v-320h-165v553h165v-74q30 40 76 63t106 23q101 0 159.5 -61z" />
    <glyph glyph-name="o" unicode="o" 
d="M187.5 25.5q-70.5 37.5 -110.5 103.5t-40 148t40 148t111 103t159 37t158.5 -37t110.5 -102.5t40 -147.5q0 -83 -40 -149t-110.5 -103.5t-159.5 -37.5q-88 0 -158.5 37.5zM449 171q40 41 40 106q0 66 -40 106.5t-103 40.5q-62 0 -102 -40t-40 -105q0 -67 40 -108t103 -41
q62 0 102 41z" />
    <glyph glyph-name="p" unicode="p" horiz-adv-x="711" 
d="M63 -172v725h165v-62q68 74 181 74q73 0 133.5 -37t95.5 -103.5t35 -149.5q0 -84 -34.5 -149.5t-95 -101.5t-135.5 -36q-113 0 -180 73v-233h-165zM470 170.5q38 40.5 38 104.5q0 67 -37.5 107.5t-99.5 40.5q-65 0 -103.5 -42t-39.5 -104q0 -67 39.5 -107t103.5 -40
q61 0 99 40.5z" />
    <glyph glyph-name="q" unicode="q" horiz-adv-x="710" 
d="M482 60q-68 -72 -179 -72q-75 0 -135.5 36t-95.5 101.5t-35 149.5q0 83 35.5 149.5t96 103.5t133.5 37q111 0 180 -73v61h165v-725h-165v232zM443 169.5q39 39.5 39 106.5q0 68 -39 107.5t-103 39.5q-62 0 -100 -40.5t-38 -107.5q0 -64 38.5 -104.5t99.5 -40.5
q64 0 103 39.5z" />
    <glyph glyph-name="r" unicode="r" horiz-adv-x="456" 
d="M453 556l-18 -147h-73q-62 0 -98 -50.5t-36 -132.5v-226h-165v553h165v-84q47 95 156 95q36 0 69 -8z" />
    <glyph glyph-name="s" unicode="s" horiz-adv-x="542" 
d="M135.5 0.5q-57.5 12.5 -111.5 37.5l24 135q53 -26 111.5 -39.5t114.5 -13.5q39 0 62 9.5t23 34.5q0 21 -23.5 32.5t-87.5 22.5q-81 13 -128 34t-68 53.5t-21 80.5q1 88 70 133t173 45q105 0 211 -40l-21 -135q-42 20 -95.5 32t-104.5 12q-37 0 -55 -8.5t-19 -28.5
q0 -18 21 -28.5t82 -21.5q123 -23 173.5 -64.5t50.5 -113.5q-1 -89 -71.5 -135t-181.5 -46q-71 0 -128.5 12.5z" />
    <glyph glyph-name="t" unicode="t" horiz-adv-x="486" 
d="M153.5 37.5q-51.5 49.5 -51.5 143.5v236h-72v74l172 183h65v-121h169v-136h-169v-213q0 -35 17.5 -54t48.5 -19q45 0 91 20l30 -125q-34 -19 -75 -28.5t-79 -9.5q-95 0 -146.5 49.5z" />
    <glyph glyph-name="u" unicode="u" horiz-adv-x="684" 
d="M455 553h165v-553h-165v74q-30 -40 -75.5 -63t-106.5 -23q-101 0 -159.5 61t-58.5 169v335h165v-304q0 -114 105 -114q45 0 79.5 27t50.5 71v320z" />
    <glyph glyph-name="v" unicode="v" horiz-adv-x="659" 
d="M415 0h-171l-229 553h177l137 -371h1l136 371h178z" />
    <glyph glyph-name="w" unicode="w" horiz-adv-x="947" 
d="M648 191l108 362h174l-188 -553h-169l-99 336l-100 -336h-168l-189 553h174l108 -362l103 362h142z" />
    <glyph glyph-name="x" unicode="x" horiz-adv-x="666" 
d="M430 285l221 -285h-187l-132 173l-133 -173h-184l219 283l-209 270h193l115 -160l115 160h190z" />
    <glyph glyph-name="y" unicode="y" horiz-adv-x="659" 
d="M329 177l140 376h175l-233 -553l-71 -171h-170l77 175l-232 549h174z" />
    <glyph glyph-name="z" unicode="z" horiz-adv-x="575" 
d="M543 0h-510v99l284 316h-276v138h497v-99l-286 -315h291v-139z" />
    <glyph glyph-name="braceleft" unicode="{" horiz-adv-x="398" 
d="M377 615q-57 -3 -78 -22.5t-21 -62.5q0 -31 3 -64q1 -10 2 -30t1 -35q0 -58 -31 -86.5t-89 -33.5v-2q58 -5 89 -33.5t31 -87.5q0 -21 -1 -37.5t-2 -27.5q-3 -33 -3 -63q0 -43 21 -62.5t78 -23.5v-126q-104 -2 -163.5 15t-83.5 50t-24 85q0 20 3 43q11 101 11 137
q0 76 -99 76v112q100 0 99 76q-2 56 -11 137q-3 23 -3 42q0 52 24 85t83 50t164 15v-126z" />
    <glyph glyph-name="bar" unicode="|" horiz-adv-x="299" 
d="M223 700v-803h-147v803h147z" />
    <glyph glyph-name="braceright" unicode="}" horiz-adv-x="398" 
d="M21 -55q57 3 78 22.5t21 62.5q0 31 -3 64q-1 11 -2 27.5t-1 37.5q0 59 31 87.5t89 33.5v1q-58 5 -89 33.5t-31 88.5q0 30 3 63q1 11 2 27.5t1 37.5q0 43 -21 62.5t-78 22.5v126q104 2 163.5 -15t83.5 -50t24 -85q0 -20 -3 -43q-11 -101 -11 -137q0 -75 99 -75v-113
q-100 0 -99 -76q3 -58 11 -136q3 -23 3 -42q0 -52 -24 -85t-83 -50t-164 -15v125z" />
    <glyph glyph-name="asciitilde" unicode="~" horiz-adv-x="511" 
d="M21 579q5 49 40 77.5t92 28.5q28 0 53 -5t60 -14q48 -13 72 -13q25 0 41.5 11t21.5 29l89 -17q-5 -50 -40 -78.5t-92 -28.5q-26 0 -48.5 4.5t-61.5 13.5q-20 5 -40 9.5t-35 4.5q-25 0 -41.5 -11t-21.5 -29z" />
    <glyph glyph-name="uni00A0" unicode="&#xa0;" horiz-adv-x="293" 
 />
    <glyph glyph-name="exclamdown" unicode="&#xa1;" horiz-adv-x="276" 
d="M228 553v-156h-180v156h180zM220 109v-257h-165v256l25 219h115z" />
    <glyph glyph-name="cent" unicode="&#xa2;" horiz-adv-x="587" 
d="M554 58q-52 -38 -100.5 -53t-109.5 -16l-26 -141h-125l28 161q-84 30 -134 100.5t-50 167.5q0 82 38 146t102.5 100.5t141.5 41.5l24 134h126l-27 -147q58 -16 112 -57l-67 -119q-36 26 -67.5 37.5t-67.5 11.5q-65 0 -106 -39t-41 -109t41 -109.5t107 -39.5q69 0 136 46z
" />
    <glyph glyph-name="sterling" unicode="&#xa3;" horiz-adv-x="603" 
d="M258 277v-147h316v-132h-551v101l80 23v155h-81v81h81v75q0 130 68.5 203.5t190.5 73.5q129 0 223 -92l-90 -99q-26 26 -53.5 40t-65.5 14q-56 0 -87 -37.5t-31 -97.5v-80h191v-81h-191z" />
    <glyph glyph-name="yen" unicode="&#xa5;" horiz-adv-x="723" 
d="M243 311l-239 389h187l171 -301l170 301h187l-237 -389h92v-68h-126v-53h126v-68h-126v-122h-173v122h-128v68h128v53h-128v68h96z" />
    <glyph glyph-name="brokenbar" unicode="&#xa6;" horiz-adv-x="290" 
d="M218 700v-315h-147v315h147zM218 231v-315h-147v315h147z" />
    <glyph glyph-name="section" unicode="&#xa7;" horiz-adv-x="560" 
d="M397.5 536.5q15.5 -28.5 39.5 -68.5q47 -80 71.5 -138.5t24.5 -124.5q0 -68 -35.5 -116.5t-97 -74t-138.5 -25.5q-117 0 -228 57l42 99q59 -29 118 -37q-16 46 -64 126q-47 80 -71.5 138.5t-24.5 124.5q0 68 35.5 116.5t97.5 73.5t139 25q115 0 226 -57l-41 -99
q-59 29 -118 37q9 -28 24.5 -56.5zM392 213q0 42 -16 83t-47 100q-30 59 -48 101.5t-26 91.5q-81 -21 -81 -101q0 -42 15.5 -82.5t47.5 -99.5q31 -58 49 -101.5t26 -92.5q80 22 80 101z" />
    <glyph glyph-name="dieresis" unicode="&#xa8;" horiz-adv-x="382" 
d="M164 605h-108v129h108v-129zM326 605h-108v129h108v-129z" />
    <glyph glyph-name="copyright" unicode="&#xa9;" horiz-adv-x="812" 
d="M227 42q-82 48 -130 130t-48 179t48 179t130 130t179 48t179 -48t130 -130t48 -179t-48 -179t-130 -130t-179 -48t-179 48zM544.5 112q63.5 37 100.5 100.5t37 138.5t-37 138.5t-100.5 100.5t-138.5 37t-138 -37t-100 -100.5t-37 -138.5t37 -138.5t100 -100.5t138 -37
t138.5 37zM304 177q-48 26 -75.5 71.5t-27.5 103.5q0 57 27.5 103t75.5 72t107 26q106 0 165 -70l-67 -66q-22 22 -42.5 31.5t-47.5 9.5q-42 0 -70 -29t-28 -76t28.5 -77t69.5 -30q28 0 47.5 10t42.5 33l67 -66q-59 -72 -165 -72q-59 0 -107 26z" />
    <glyph glyph-name="ordfeminine" unicode="&#xaa;" horiz-adv-x="378" 
d="M303 714q38 -36 38 -100v-168h-108v43q-13 -22 -37.5 -36t-54.5 -14q-46 0 -75 25t-29 67q0 45 33 73.5t91 28.5q42 0 72 -3q-5 40 -62 40q-21 0 -43.5 -6t-39.5 -15l-31 71q57 30 128 30q80 0 118 -36zM217.5 532q15.5 14 15.5 40v1q-13 2 -45 2q-21 0 -34 -8.5
t-13 -19.5q0 -15 10 -22t27 -7q24 0 39.5 14zM341 318h-298v83h298v-83z" />
    <glyph glyph-name="guillemotleft" unicode="&#xab;" horiz-adv-x="550" 
d="M289 78l-90 -46l-178 203v57l171 202l97 -46l-136 -185zM530 78l-97 -46l-193 226v10l193 226l97 -46l-137 -185z" />
    <glyph glyph-name="logicalnot" unicode="&#xac;" horiz-adv-x="441" 
d="M21 288v128h399v-249h-128v121h-271z" />
    <glyph glyph-name="uni00AD" unicode="&#xad;" horiz-adv-x="423" 
d="M402 294v-128h-381v128h381z" />
    <glyph glyph-name="registered" unicode="&#xae;" horiz-adv-x="414" 
d="M286.5 691q36.5 -21 57.5 -57t21 -79t-21 -79.5t-57.5 -58t-79.5 -21.5t-79 21.5t-57.5 58t-21.5 79.5t21.5 79t57.5 57t79 21t79.5 -21zM274 439q31 18 49 49t18 67t-18 66.5t-49 48.5t-67 18t-66.5 -18t-48.5 -48.5t-18 -66.5t18 -67t48.5 -49t66.5 -18t67 18zM250 530
l46 -56h-55l-36 51h-22v-51h-46v172h76q36 0 57 -16t21 -44q0 -42 -41 -56zM183 611v-52h29q16 0 25 6.5t9 19.5q0 12 -9 19t-25 7h-29z" />
    <glyph glyph-name="macron" unicode="&#xaf;" horiz-adv-x="445" 
d="M396 616h-347v102h347v-102z" />
    <glyph glyph-name="degree" unicode="&#xb0;" horiz-adv-x="414" 
d="M128 417.5q-36 21.5 -57.5 58t-21.5 79.5t21.5 79t57.5 57t79 21t79.5 -21t57.5 -57t21 -79t-21.5 -79.5t-57.5 -58t-79 -21.5t-79 21.5zM281 480.5q30 30.5 30 74.5q0 43 -30.5 73t-73.5 30q-44 0 -74.5 -30t-30.5 -73q0 -44 30.5 -74.5t74.5 -30.5t74 30.5z" />
    <glyph glyph-name="plusminus" unicode="&#xb1;" horiz-adv-x="506" 
d="M317 599v-148h168v-129h-168v-151h-129v151h-167v129h167v148h129zM480 27h-446v108h446v-108z" />
    <glyph glyph-name="uni00B2" unicode="&#xb2;" horiz-adv-x="359" 
d="M35 536q75 44 129 88q25 20 37.5 34.5t12.5 25.5q0 17 -13.5 26t-35.5 9q-43 0 -78 -35l-62 73q30 27 70.5 40.5t82.5 13.5q63 0 107 -31t44 -87q0 -31 -15.5 -55.5t-49.5 -51.5l-44 -35h114v-95h-299v80z" />
    <glyph glyph-name="uni00B3" unicode="&#xb3;" horiz-adv-x="362" 
d="M95 461.5q-35 11.5 -70 35.5l38 74q17 -12 51.5 -20t56.5 -8q21 0 34 9.5t13 25.5q0 14 -12.5 25t-32.5 11q-24 0 -66 -2v53l90 67h-143v74h260l6 -63l-84 -71q4 -1 7.5 -0.5t7.5 -0.5q40 -8 63 -35t23 -66q0 -55 -46 -87.5t-112 -32.5q-49 0 -84 11.5z" />
    <glyph glyph-name="acute" unicode="&#xb4;" horiz-adv-x="331" 
d="M281 731l-117 -125l-115 11l77 150z" />
    <glyph glyph-name="uni00B5" unicode="&#xb5;" horiz-adv-x="683" 
d="M455 553h165v-553h-165v74q-30 -40 -75.5 -63t-106.5 -23q-30 0 -59 6l6 -165h-165v724h165v-304q0 -114 105 -114q45 0 79.5 27t50.5 71v320z" />
    <glyph glyph-name="paragraph" unicode="&#xb6;" horiz-adv-x="766" 
d="M455 700v-820h-110v375h-44q-126 0 -199.5 60t-73.5 164q0 103 73 162t199 59h155zM580 -120v820h110v-820h-110z" />
    <glyph glyph-name="periodcentered" unicode="&#xb7;" horiz-adv-x="220" 
d="M36 246v129h150v-129h-150z" />
    <glyph glyph-name="cedilla" unicode="&#xb8;" horiz-adv-x="284" 
d="M168 -33q33 -6 52.5 -24.5t19.5 -44.5q0 -36 -34.5 -56.5t-95.5 -20.5q-40 0 -70 6l15 70q20 -5 38 -5q29 0 29 16q0 24 -53 20l22 80h89z" />
    <glyph glyph-name="uni00B9" unicode="&#xb9;" horiz-adv-x="247" 
d="M25 791l101 14h96v-349h-115v250l-69 -9z" />
    <glyph glyph-name="ordmasculine" unicode="&#xba;" horiz-adv-x="414" 
d="M119.5 454.5q-38.5 20.5 -60.5 56t-22 80.5q0 44 22 79.5t61 55.5t87 20q49 0 87.5 -20t60.5 -55.5t22 -79.5q0 -45 -22 -80.5t-60.5 -56t-87.5 -20.5t-87.5 20.5zM251 541.5q18 19.5 18 49.5q0 28 -18 47.5t-44 19.5t-43.5 -19t-17.5 -48t17.5 -49t43.5 -20t44 19.5z
M366 314h-321v82h321v-82z" />
    <glyph glyph-name="guillemotright" unicode="&#xbb;" horiz-adv-x="550" 
d="M21 448l97 47l192 -226v-10l-192 -226l-97 46l136 184zM261 448l90 47l179 -203v-57l-172 -202l-97 46l137 184z" />
    <glyph glyph-name="onequarter" unicode="&#xbc;" horiz-adv-x="851" 
d="M25 701l101 14h96v-349h-115v250l-69 -9zM215 0h-142l413 700h142zM784 0h-108v59h-175l-22 62l162 228h143v-208h41v-82h-41v-59zM676 261l-81 -120h81v120z" />
    <glyph glyph-name="onehalf" unicode="&#xbd;" horiz-adv-x="814" 
d="M25 701l101 14h96v-349h-115v250l-69 -9zM215 0h-142l413 700h142zM489 80q75 44 129 88q25 20 37.5 34.5t12.5 25.5q0 17 -13.5 26t-35.5 9q-43 0 -78 -35l-62 73q30 27 70.5 40.5t82.5 13.5q63 0 107 -31t44 -87q0 -31 -15.5 -55.5t-49.5 -51.5l-44 -35h114v-95h-299
v80z" />
    <glyph glyph-name="threequarters" unicode="&#xbe;" horiz-adv-x="966" 
d="M95 371.5q-35 11.5 -70 35.5l38 74q17 -12 51.5 -20t56.5 -8q21 0 34 9.5t13 25.5q0 14 -12.5 25t-32.5 11q-24 0 -66 -2v53l90 67h-143v74h260l6 -63l-84 -71q4 -1 7.5 -0.5t7.5 -0.5q40 -8 63 -35t23 -66q0 -55 -46 -87.5t-112 -32.5q-49 0 -84 11.5zM330 0h-142
l413 700h142zM899 0h-108v59h-175l-22 62l162 228h143v-208h41v-82h-41v-59zM791 261l-81 -120h81v120z" />
    <glyph glyph-name="questiondown" unicode="&#xbf;" horiz-adv-x="530" 
d="M347 553v-156h-180v156h180zM333 326q1 -9 1 -25q0 -57 -23 -98t-72 -72q-32 -23 -47.5 -41.5t-15.5 -42.5q0 -29 24.5 -44.5t68.5 -15.5q78 0 180 65l56 -135q-137 -76 -257 -76q-72 0 -126 23t-83 64t-29 95q0 52 28 89t77 76q46 38 62.5 65.5t17.5 72.5h138z" />
    <glyph glyph-name="Agrave" unicode="&#xc0;" horiz-adv-x="805" 
d="M796 0h-181l-46 115h-336l-46 -115h-178l290 700h206zM402 533l-115 -286h229zM467 750l-129 -7l-107 107l148 30z" />
    <glyph glyph-name="Aacute" unicode="&#xc1;" horiz-adv-x="805" 
d="M796 0h-181l-46 115h-336l-46 -115h-178l290 700h206zM402 533l-115 -286h229zM563 850l-107 -107l-129 7l88 130z" />
    <glyph glyph-name="Acircumflex" unicode="&#xc2;" horiz-adv-x="805" 
d="M796 0h-181l-46 115h-336l-46 -115h-178l290 700h206zM402 533l-115 -286h229zM485 877l93 -132l-133 -6l-47 77l-48 -77l-133 6l93 132h175z" />
    <glyph glyph-name="Atilde" unicode="&#xc3;" horiz-adv-x="805" 
d="M796 0h-181l-46 115h-336l-46 -115h-178l290 700h206zM402 533l-115 -286h229zM218 752q0 53 27.5 84.5t72.5 31.5q21 0 40 -5t43 -14q35 -13 50 -13q19 0 31 11.5t12 30.5l75 -18q0 -53 -28 -84.5t-73 -31.5q-21 0 -38.5 5t-42.5 14q-35 13 -52 13q-19 0 -30.5 -11.5
t-11.5 -30.5z" />
    <glyph glyph-name="Adieresis" unicode="&#xc4;" horiz-adv-x="805" 
d="M796 0h-181l-46 115h-336l-46 -115h-178l290 700h206zM402 533l-115 -286h229zM379 741h-128v125h128v-125zM546 741h-127v125h127v-125z" />
    <glyph glyph-name="Aring" unicode="&#xc5;" horiz-adv-x="805" 
d="M796 0h-181l-46 115h-336l-46 -115h-178l290 700h206zM402 533l-115 -286h229zM301 752q-38 35 -38 88q0 54 38 89t97 35t97.5 -35t38.5 -89q0 -53 -38.5 -88t-97.5 -35t-97 35zM431.5 808.5q13.5 12.5 13.5 31.5q0 20 -13.5 33t-33.5 13t-33.5 -13t-13.5 -33
q0 -19 13.5 -31.5t33.5 -12.5t33.5 12.5z" />
    <glyph glyph-name="AE" unicode="&#xc6;" horiz-adv-x="1112" 
d="M659 291v-149h411v-142h-580v141h-226l-77 -141h-178l373 700h678v-142h-401v-132h355v-135h-355zM489 558l-157 -287h158v287h-1z" />
    <glyph glyph-name="Ccedilla" unicode="&#xc7;" horiz-adv-x="724" 
d="M462 -36q33 -6 52.5 -24.5t19.5 -44.5q0 -36 -34.5 -56.5t-95.5 -20.5q-40 0 -70 6l15 70q20 -5 38 -5q29 0 29 16q0 24 -53 20l18 65q-95 10 -170.5 57t-118.5 125.5t-43 177.5q0 110 49 192t134.5 126t191.5 44q142 0 270 -87l-73 -130q-95 68 -189 68
q-59 0 -106 -25.5t-74 -73.5t-27 -113q0 -66 27.5 -114.5t74.5 -73.5t107 -25q95 0 190 67l72 -130q-107 -75 -227 -86z" />
    <glyph glyph-name="Egrave" unicode="&#xc8;" horiz-adv-x="698" 
d="M245 291v-149h411v-142h-580v700h570v-142h-401v-132h355v-135h-355zM417 750l-129 -7l-107 107l148 30z" />
    <glyph glyph-name="Eacute" unicode="&#xc9;" horiz-adv-x="698" 
d="M245 291v-149h411v-142h-580v700h570v-142h-401v-132h355v-135h-355zM513 850l-107 -107l-129 7l88 130z" />
    <glyph glyph-name="Ecircumflex" unicode="&#xca;" horiz-adv-x="698" 
d="M245 291v-149h411v-142h-580v700h570v-142h-401v-132h355v-135h-355zM435 877l93 -132l-133 -6l-47 77l-48 -77l-133 6l93 132h175z" />
    <glyph glyph-name="Edieresis" unicode="&#xcb;" horiz-adv-x="698" 
d="M245 291v-149h411v-142h-580v700h570v-142h-401v-132h355v-135h-355zM329 741h-128v125h128v-125zM496 741h-127v125h127v-125z" />
    <glyph glyph-name="Igrave" unicode="&#xcc;" horiz-adv-x="324" 
d="M248 0h-172v700h172v-700zM232 750l-129 -7l-107 107l148 30z" />
    <glyph glyph-name="Iacute" unicode="&#xcd;" horiz-adv-x="324" 
d="M248 0h-172v700h172v-700zM328 850l-107 -107l-129 7l88 130z" />
    <glyph glyph-name="Icircumflex" unicode="&#xce;" horiz-adv-x="324" 
d="M248 0h-172v700h172v-700zM250 877l93 -132l-133 -6l-47 77l-48 -77l-133 6l93 132h175z" />
    <glyph glyph-name="Idieresis" unicode="&#xcf;" horiz-adv-x="324" 
d="M248 0h-172v700h172v-700zM144 741h-128v125h128v-125zM311 741h-127v125h127v-125z" />
    <glyph glyph-name="Eth" unicode="&#xd0;" horiz-adv-x="826" 
d="M387 700q117 0 205 -43t136 -122t48 -184q0 -106 -48 -185.5t-136 -122.5t-205 -43h-311v307h-50v92h50v301h311zM379 147q102 0 160.5 54t58.5 149t-58.5 149t-160.5 54h-131v-154h184v-92h-184v-160h131z" />
    <glyph glyph-name="Ntilde" unicode="&#xd1;" horiz-adv-x="832" 
d="M248 0h-172v700h159l349 -427v427h172v-700h-154l-354 434v-434zM238 752q0 53 27.5 84.5t72.5 31.5q21 0 40 -5t43 -14q35 -13 50 -13q19 0 31 11.5t12 30.5l75 -18q0 -53 -28 -84.5t-73 -31.5q-21 0 -38.5 5t-42.5 14q-35 13 -52 13q-19 0 -30.5 -11.5t-11.5 -30.5z
" />
    <glyph glyph-name="Ograve" unicode="&#xd2;" horiz-adv-x="855" 
d="M232.5 34.5q-86.5 46.5 -135 129t-48.5 186.5t49 186.5t135 129t195 46.5q108 0 194.5 -46.5t135 -129t48.5 -186.5t-49 -186.5t-135 -129t-195 -46.5q-108 0 -194.5 46.5zM531 164.5q45 26.5 70.5 74.5t25.5 111t-25.5 111t-70.5 74.5t-103 26.5t-103.5 -26.5t-71 -74.5
t-25.5 -111t25.5 -111t71 -74.5t103.5 -26.5t103 26.5zM497 750l-129 -7l-107 107l148 30z" />
    <glyph glyph-name="Oacute" unicode="&#xd3;" horiz-adv-x="855" 
d="M232.5 34.5q-86.5 46.5 -135 129t-48.5 186.5t49 186.5t135 129t195 46.5q108 0 194.5 -46.5t135 -129t48.5 -186.5t-49 -186.5t-135 -129t-195 -46.5q-108 0 -194.5 46.5zM531 164.5q45 26.5 70.5 74.5t25.5 111t-25.5 111t-70.5 74.5t-103 26.5t-103.5 -26.5t-71 -74.5
t-25.5 -111t25.5 -111t71 -74.5t103.5 -26.5t103 26.5zM594 850l-107 -107l-129 7l88 130z" />
    <glyph glyph-name="Ocircumflex" unicode="&#xd4;" horiz-adv-x="855" 
d="M232.5 34.5q-86.5 46.5 -135 129t-48.5 186.5t49 186.5t135 129t195 46.5q108 0 194.5 -46.5t135 -129t48.5 -186.5t-49 -186.5t-135 -129t-195 -46.5q-108 0 -194.5 46.5zM531 164.5q45 26.5 70.5 74.5t25.5 111t-25.5 111t-70.5 74.5t-103 26.5t-103.5 -26.5t-71 -74.5
t-25.5 -111t25.5 -111t71 -74.5t103.5 -26.5t103 26.5zM515 877l93 -132l-133 -6l-47 77l-48 -77l-133 6l93 132h175z" />
    <glyph glyph-name="Otilde" unicode="&#xd5;" horiz-adv-x="855" 
d="M232.5 34.5q-86.5 46.5 -135 129t-48.5 186.5t49 186.5t135 129t195 46.5q108 0 194.5 -46.5t135 -129t48.5 -186.5t-49 -186.5t-135 -129t-195 -46.5q-108 0 -194.5 46.5zM531 164.5q45 26.5 70.5 74.5t25.5 111t-25.5 111t-70.5 74.5t-103 26.5t-103.5 -26.5t-71 -74.5
t-25.5 -111t25.5 -111t71 -74.5t103.5 -26.5t103 26.5zM248 752q0 53 27.5 84.5t72.5 31.5q21 0 40 -5t43 -14q35 -13 50 -13q19 0 31 11.5t12 30.5l75 -18q0 -53 -28 -84.5t-73 -31.5q-21 0 -38.5 5t-42.5 14q-35 13 -52 13q-19 0 -30.5 -11.5t-11.5 -30.5z" />
    <glyph glyph-name="Odieresis" unicode="&#xd6;" horiz-adv-x="855" 
d="M232.5 34.5q-86.5 46.5 -135 129t-48.5 186.5t49 186.5t135 129t195 46.5q108 0 194.5 -46.5t135 -129t48.5 -186.5t-49 -186.5t-135 -129t-195 -46.5q-108 0 -194.5 46.5zM531 164.5q45 26.5 70.5 74.5t25.5 111t-25.5 111t-70.5 74.5t-103 26.5t-103.5 -26.5t-71 -74.5
t-25.5 -111t25.5 -111t71 -74.5t103.5 -26.5t103 26.5zM409 741h-128v125h128v-125zM576 741h-127v125h127v-125z" />
    <glyph glyph-name="multiply" unicode="&#xd7;" horiz-adv-x="451" 
d="M340 547l91 -90l-114 -114l114 -114l-91 -91l-114 114l-114 -115l-91 92l114 114l-114 114l91 91l114 -114z" />
    <glyph glyph-name="Oslash" unicode="&#xd8;" horiz-adv-x="855" 
d="M807 668l-84 -84q40 -46 61.5 -106t21.5 -128q0 -104 -49 -186.5t-135 -129t-195 -46.5q-132 0 -231 69l-72 -72l-61 61l69 69q-40 47 -61.5 107t-21.5 128q0 104 49 186.5t135 129t195 46.5q66 0 125 -18t107 -51l86 86zM254 237l290 290q-49 35 -116 35
q-58 0 -103.5 -26.5t-71 -74.5t-25.5 -111q0 -64 26 -113zM601 462l-289 -289q47 -35 116 -35q58 0 103 26.5t70.5 74.5t25.5 111q0 65 -26 112z" />
    <glyph glyph-name="Ugrave" unicode="&#xd9;" horiz-adv-x="765" 
d="M211 25.5q-73 37.5 -112.5 107.5t-39.5 165v402h173v-402q0 -80 39.5 -122.5t110.5 -42.5q73 0 113 42.5t40 122.5v402h171v-402q0 -95 -39.5 -165t-112.5 -107.5t-172 -37.5q-98 0 -171 37.5zM453 750l-129 -7l-107 107l148 30z" />
    <glyph glyph-name="Uacute" unicode="&#xda;" horiz-adv-x="765" 
d="M211 25.5q-73 37.5 -112.5 107.5t-39.5 165v402h173v-402q0 -80 39.5 -122.5t110.5 -42.5q73 0 113 42.5t40 122.5v402h171v-402q0 -95 -39.5 -165t-112.5 -107.5t-172 -37.5q-98 0 -171 37.5zM549 850l-107 -107l-129 7l88 130z" />
    <glyph glyph-name="Ucircumflex" unicode="&#xdb;" horiz-adv-x="765" 
d="M211 25.5q-73 37.5 -112.5 107.5t-39.5 165v402h173v-402q0 -80 39.5 -122.5t110.5 -42.5q73 0 113 42.5t40 122.5v402h171v-402q0 -95 -39.5 -165t-112.5 -107.5t-172 -37.5q-98 0 -171 37.5zM471 877l93 -132l-133 -6l-47 77l-48 -77l-133 6l93 132h175z" />
    <glyph glyph-name="Udieresis" unicode="&#xdc;" horiz-adv-x="765" 
d="M211 25.5q-73 37.5 -112.5 107.5t-39.5 165v402h173v-402q0 -80 39.5 -122.5t110.5 -42.5q73 0 113 42.5t40 122.5v402h171v-402q0 -95 -39.5 -165t-112.5 -107.5t-172 -37.5q-98 0 -171 37.5zM365 741h-128v125h128v-125zM532 741h-127v125h127v-125z" />
    <glyph glyph-name="Yacute" unicode="&#xdd;" horiz-adv-x="743" 
d="M552 700h187l-281 -461v-239h-173v242l-281 458h187l181 -318zM538 850l-107 -107l-129 7l88 130z" />
    <glyph glyph-name="Thorn" unicode="&#xde;" horiz-adv-x="709" 
d="M370 607q95 0 165.5 -30.5t108 -88t37.5 -134.5q0 -79 -38 -136.5t-108.5 -88.5t-165.5 -31h-121v-98h-172v700h172v-93h122zM365 233q68 0 106 32t38 88t-38 87.5t-106 31.5h-117v-239h117z" />
    <glyph glyph-name="germandbls" unicode="&#xdf;" horiz-adv-x="692" 
d="M610.5 323q42.5 -46 42.5 -113q0 -63 -32 -112.5t-87 -77.5t-121 -28q-78 0 -125 21l3 127q19 -8 42 -13t42 -5q55 0 87 28.5t32 76.5q0 43 -34 68t-90 25q-13 0 -33.5 -1.5t-28.5 -3.5v99q58 3 97.5 33.5t39.5 81.5q0 39 -29 65.5t-74 26.5q-51 0 -82.5 -33.5
t-31.5 -88.5v-499h-165v500q0 72 35.5 129t99 89t144.5 32q75 0 134.5 -27t93.5 -74t34 -106q0 -53 -29 -96t-76 -65q69 -13 111.5 -59z" />
    <glyph glyph-name="agrave" unicode="&#xe0;" horiz-adv-x="621" 
d="M498 501.5q68 -63.5 68 -178.5v-323h-165v70q-25 -36 -72 -59t-110 -23q-57 0 -101 22t-68 62t-24 92q0 80 55 127t165 47q79 0 154 -7v4q0 94 -128 94q-93 0 -170 -30l-16 136q98 30 204 30q140 0 208 -63.5zM364 147.5q32 29.5 36 78.5v14q-48 6 -107 6
q-109 0 -109 -67q0 -30 24 -45.5t67 -15.5q57 0 89 29.5zM357 618l-115 -11l-117 125l156 36z" />
    <glyph glyph-name="aacute" unicode="&#xe1;" horiz-adv-x="621" 
d="M498 501.5q68 -63.5 68 -178.5v-323h-165v70q-25 -36 -72 -59t-110 -23q-57 0 -101 22t-68 62t-24 92q0 80 55 127t165 47q79 0 154 -7v4q0 94 -128 94q-93 0 -170 -30l-16 136q98 30 204 30q140 0 208 -63.5zM364 147.5q32 29.5 36 78.5v14q-48 6 -107 6
q-109 0 -109 -67q0 -30 24 -45.5t67 -15.5q57 0 89 29.5zM452 732l-117 -125l-115 11l77 150z" />
    <glyph glyph-name="acircumflex" unicode="&#xe2;" horiz-adv-x="621" 
d="M498 501.5q68 -63.5 68 -178.5v-323h-165v70q-25 -36 -72 -59t-110 -23q-57 0 -101 22t-68 62t-24 92q0 80 55 127t165 47q79 0 154 -7v4q0 94 -128 94q-93 0 -170 -30l-16 136q98 30 204 30q140 0 208 -63.5zM364 147.5q32 29.5 36 78.5v14q-48 6 -107 6
q-109 0 -109 -67q0 -30 24 -45.5t67 -15.5q57 0 89 29.5zM377 748l89 -146l-127 -7l-46 85l-46 -85l-127 7l89 146h168z" />
    <glyph glyph-name="atilde" unicode="&#xe3;" horiz-adv-x="621" 
d="M498 501.5q68 -63.5 68 -178.5v-323h-165v70q-25 -36 -72 -59t-110 -23q-57 0 -101 22t-68 62t-24 92q0 80 55 127t165 47q79 0 154 -7v4q0 94 -128 94q-93 0 -170 -30l-16 136q98 30 204 30q140 0 208 -63.5zM364 147.5q32 29.5 36 78.5v14q-48 6 -107 6
q-109 0 -109 -67q0 -30 24 -45.5t67 -15.5q57 0 89 29.5zM118 614q0 53 27.5 84.5t72.5 31.5q21 0 40 -5t43 -14q35 -13 50 -13q19 0 31 11.5t12 30.5l75 -18q0 -53 -28 -84.5t-73 -31.5q-21 0 -38.5 5t-42.5 14q-35 13 -52 13q-19 0 -30.5 -11.5t-11.5 -30.5z" />
    <glyph glyph-name="adieresis" unicode="&#xe4;" horiz-adv-x="621" 
d="M498 501.5q68 -63.5 68 -178.5v-323h-165v70q-25 -36 -72 -59t-110 -23q-57 0 -101 22t-68 62t-24 92q0 80 55 127t165 47q79 0 154 -7v4q0 94 -128 94q-93 0 -170 -30l-16 136q98 30 204 30q140 0 208 -63.5zM364 147.5q32 29.5 36 78.5v14q-48 6 -107 6
q-109 0 -109 -67q0 -30 24 -45.5t67 -15.5q57 0 89 29.5zM266 606h-108v129h108v-129zM428 606h-108v129h108v-129z" />
    <glyph glyph-name="aring" unicode="&#xe5;" horiz-adv-x="621" 
d="M498 501.5q68 -63.5 68 -178.5v-323h-165v70q-25 -36 -72 -59t-110 -23q-57 0 -101 22t-68 62t-24 92q0 80 55 127t165 47q79 0 154 -7v4q0 94 -128 94q-93 0 -170 -30l-16 136q98 30 204 30q140 0 208 -63.5zM364 147.5q32 29.5 36 78.5v14q-48 6 -107 6
q-109 0 -109 -67q0 -30 24 -45.5t67 -15.5q57 0 89 29.5zM196 620q-38 35 -38 88q0 54 38 89t97 35t97.5 -35t38.5 -89q0 -53 -38.5 -88t-97.5 -35t-97 35zM326.5 676.5q13.5 12.5 13.5 31.5q0 20 -13.5 33t-33.5 13t-33.5 -13t-13.5 -33q0 -19 13.5 -31.5t33.5 -12.5
t33.5 12.5z" />
    <glyph glyph-name="ae" unicode="&#xe6;" horiz-adv-x="1011" 
d="M565 228q12 -53 52.5 -79.5t103.5 -26.5q38 0 79.5 11t73.5 32l38 -121q-46 -30 -95.5 -43t-109.5 -13q-73 0 -134.5 26t-103.5 73q-41 -47 -102 -73t-132 -26q-58 0 -106 21.5t-75.5 61t-27.5 93.5q0 79 59 125.5t166 46.5q86 0 149 -6v7q-1 92 -128 92q-41 0 -86 -7.5
t-84 -22.5l-16 136q61 15 105.5 22.5t98.5 7.5q133 0 197 -77q40 37 94.5 57t118.5 20q78 0 140.5 -31.5t98 -87t35.5 -124.5q0 -47 -18 -94h-391zM609 404.5q-33 -27.5 -44 -79.5l247 1q-2 52 -33.5 79t-83.5 27q-53 0 -86 -27.5zM361.5 147q37.5 32 39.5 84v10
q-50 5 -109 5q-51 0 -79.5 -18t-28.5 -49q0 -29 23 -46.5t63 -17.5q54 0 91.5 32z" />
    <glyph glyph-name="ccedilla" unicode="&#xe7;" horiz-adv-x="570" 
d="M554 58q-44 -31 -84.5 -46.5t-87.5 -20.5l-7 -25q33 -6 52.5 -24.5t19.5 -44.5q0 -36 -34.5 -56.5t-95.5 -20.5q-40 0 -70 6l15 70q20 -5 38 -5q29 0 29 16q0 24 -53 20l18 65q-73 9 -131.5 46t-92 98.5t-33.5 140.5q0 85 41 150.5t109.5 101.5t149.5 36
q63 0 115.5 -16.5t101.5 -53.5l-67 -119q-36 26 -67.5 37.5t-67.5 11.5q-65 0 -106 -39t-41 -109t41 -109.5t107 -39.5q69 0 136 46z" />
    <glyph glyph-name="egrave" unicode="&#xe8;" horiz-adv-x="649" 
d="M203 228q12 -53 52.5 -79.5t103.5 -26.5q38 0 79.5 11t73.5 32l38 -121q-46 -30 -95.5 -43t-109.5 -13q-87 0 -157.5 36.5t-110.5 102.5t-40 150q0 82 38 148t106.5 103t156.5 37q78 0 140.5 -31.5t98 -87t35.5 -124.5q0 -47 -18 -94h-391zM247 404.5
q-33 -27.5 -44 -79.5l247 1q-2 52 -33.5 79t-83.5 27q-53 0 -86 -27.5zM391 617l-115 -11l-117 125l156 36z" />
    <glyph glyph-name="eacute" unicode="&#xe9;" horiz-adv-x="649" 
d="M203 228q12 -53 52.5 -79.5t103.5 -26.5q38 0 79.5 11t73.5 32l38 -121q-46 -30 -95.5 -43t-109.5 -13q-87 0 -157.5 36.5t-110.5 102.5t-40 150q0 82 38 148t106.5 103t156.5 37q78 0 140.5 -31.5t98 -87t35.5 -124.5q0 -47 -18 -94h-391zM247 404.5
q-33 -27.5 -44 -79.5l247 1q-2 52 -33.5 79t-83.5 27q-53 0 -86 -27.5zM486 731l-117 -125l-115 11l77 150z" />
    <glyph glyph-name="ecircumflex" unicode="&#xea;" horiz-adv-x="649" 
d="M203 228q12 -53 52.5 -79.5t103.5 -26.5q38 0 79.5 11t73.5 32l38 -121q-46 -30 -95.5 -43t-109.5 -13q-87 0 -157.5 36.5t-110.5 102.5t-40 150q0 82 38 148t106.5 103t156.5 37q78 0 140.5 -31.5t98 -87t35.5 -124.5q0 -47 -18 -94h-391zM247 404.5
q-33 -27.5 -44 -79.5l247 1q-2 52 -33.5 79t-83.5 27q-53 0 -86 -27.5zM411 747l89 -146l-127 -7l-46 85l-46 -85l-127 7l89 146h168z" />
    <glyph glyph-name="edieresis" unicode="&#xeb;" horiz-adv-x="649" 
d="M203 228q12 -53 52.5 -79.5t103.5 -26.5q38 0 79.5 11t73.5 32l38 -121q-46 -30 -95.5 -43t-109.5 -13q-87 0 -157.5 36.5t-110.5 102.5t-40 150q0 82 38 148t106.5 103t156.5 37q78 0 140.5 -31.5t98 -87t35.5 -124.5q0 -47 -18 -94h-391zM247 404.5
q-33 -27.5 -44 -79.5l247 1q-2 52 -33.5 79t-83.5 27q-53 0 -86 -27.5zM300 605h-108v129h108v-129zM462 605h-108v129h108v-129z" />
    <glyph glyph-name="igrave" unicode="&#xec;" horiz-adv-x="291" 
d="M228 0h-165v553h165v-553zM210 617l-115 -11l-117 125l156 36z" />
    <glyph glyph-name="iacute" unicode="&#xed;" horiz-adv-x="291" 
d="M228 0h-165v553h165v-553zM304 731l-117 -125l-115 11l77 150z" />
    <glyph glyph-name="icircumflex" unicode="&#xee;" horiz-adv-x="291" 
d="M228 0h-165v553h165v-553zM229 747l89 -146l-127 -7l-46 85l-46 -85l-127 7l89 146h168z" />
    <glyph glyph-name="idieresis" unicode="&#xef;" horiz-adv-x="291" 
d="M228 0h-165v553h165v-553zM118 605h-108v129h108v-129zM280 605h-108v129h108v-129z" />
    <glyph glyph-name="eth" unicode="&#xf0;" horiz-adv-x="701" 
d="M465 705q88 -53 137.5 -149t49.5 -222q0 -103 -40.5 -181.5t-114.5 -121.5t-171 -43q-84 0 -149.5 30t-102.5 86t-37 131q0 70 34 125t95 86.5t141 31.5q52 0 96 -20.5t77 -58.5q-8 60 -33.5 109.5t-66.5 83.5l-72 -96l-61 42l68 91q-55 23 -120 24l53 109q80 0 148 -24
l61 81l61 -43zM412 134.5q37 27.5 56 80.5q-9 60 -49 98t-91 38q-55 0 -91.5 -34t-36.5 -89q0 -54 36.5 -87.5t90.5 -33.5q48 0 85 27.5z" />
    <glyph glyph-name="ntilde" unicode="&#xf1;" horiz-adv-x="683" 
d="M569.5 504q58.5 -61 58.5 -169v-335h-165v304q0 114 -105 114q-45 0 -79.5 -27t-50.5 -71v-320h-165v553h165v-74q30 40 76 63t106 23q101 0 159.5 -61zM167 613q0 53 27.5 84.5t72.5 31.5q21 0 40 -5t43 -14q35 -13 50 -13q19 0 31 11.5t12 30.5l75 -18q0 -53 -28 -84.5
t-73 -31.5q-21 0 -38.5 5t-42.5 14q-35 13 -52 13q-19 0 -30.5 -11.5t-11.5 -30.5z" />
    <glyph glyph-name="ograve" unicode="&#xf2;" 
d="M187.5 25.5q-70.5 37.5 -110.5 103.5t-40 148t40 148t111 103t159 37t158.5 -37t110.5 -102.5t40 -147.5q0 -83 -40 -149t-110.5 -103.5t-159.5 -37.5q-88 0 -158.5 37.5zM449 171q40 41 40 106q0 66 -40 106.5t-103 40.5q-62 0 -102 -40t-40 -105q0 -67 40 -108t103 -41
q62 0 102 41zM411 617l-115 -11l-117 125l156 36z" />
    <glyph glyph-name="oacute" unicode="&#xf3;" 
d="M187.5 25.5q-70.5 37.5 -110.5 103.5t-40 148t40 148t111 103t159 37t158.5 -37t110.5 -102.5t40 -147.5q0 -83 -40 -149t-110.5 -103.5t-159.5 -37.5q-88 0 -158.5 37.5zM449 171q40 41 40 106q0 66 -40 106.5t-103 40.5q-62 0 -102 -40t-40 -105q0 -67 40 -108t103 -41
q62 0 102 41zM506 731l-117 -125l-115 11l77 150z" />
    <glyph glyph-name="ocircumflex" unicode="&#xf4;" 
d="M187.5 25.5q-70.5 37.5 -110.5 103.5t-40 148t40 148t111 103t159 37t158.5 -37t110.5 -102.5t40 -147.5q0 -83 -40 -149t-110.5 -103.5t-159.5 -37.5q-88 0 -158.5 37.5zM449 171q40 41 40 106q0 66 -40 106.5t-103 40.5q-62 0 -102 -40t-40 -105q0 -67 40 -108t103 -41
q62 0 102 41zM430 747l89 -146l-127 -7l-46 85l-46 -85l-127 7l89 146h168z" />
    <glyph glyph-name="otilde" unicode="&#xf5;" 
d="M187.5 25.5q-70.5 37.5 -110.5 103.5t-40 148t40 148t111 103t159 37t158.5 -37t110.5 -102.5t40 -147.5q0 -83 -40 -149t-110.5 -103.5t-159.5 -37.5q-88 0 -158.5 37.5zM449 171q40 41 40 106q0 66 -40 106.5t-103 40.5q-62 0 -102 -40t-40 -105q0 -67 40 -108t103 -41
q62 0 102 41zM171 613q0 53 27.5 84.5t72.5 31.5q21 0 40 -5t43 -14q35 -13 50 -13q19 0 31 11.5t12 30.5l75 -18q0 -53 -28 -84.5t-73 -31.5q-21 0 -38.5 5t-42.5 14q-35 13 -52 13q-19 0 -30.5 -11.5t-11.5 -30.5z" />
    <glyph glyph-name="odieresis" unicode="&#xf6;" 
d="M187.5 25.5q-70.5 37.5 -110.5 103.5t-40 148t40 148t111 103t159 37t158.5 -37t110.5 -102.5t40 -147.5q0 -83 -40 -149t-110.5 -103.5t-159.5 -37.5q-88 0 -158.5 37.5zM449 171q40 41 40 106q0 66 -40 106.5t-103 40.5q-62 0 -102 -40t-40 -105q0 -67 40 -108t103 -41
q62 0 102 41zM319 605h-108v129h108v-129zM481 605h-108v129h108v-129z" />
    <glyph glyph-name="divide" unicode="&#xf7;" horiz-adv-x="469" 
d="M319 590v-137h-157v137h157zM450 398v-116h-429v116h429zM163 91v137h158v-137h-158z" />
    <glyph glyph-name="oslash" unicode="&#xf8;" 
d="M594 457q62 -76 62 -179q0 -83 -40 -149t-110.5 -103.5t-159.5 -37.5q-96 0 -174 46l-41 -41l-66 66l36 36q-64 76 -64 182q0 82 40 148t111 103t159 37q99 0 176 -47l46 47l66 -66zM217 212l197 197q-30 15 -68 15q-62 0 -102 -40t-40 -105q0 -36 13 -67zM449 171
q40 41 40 106q0 36 -12 64l-195 -197q30 -14 65 -14q62 0 102 41z" />
    <glyph glyph-name="ugrave" unicode="&#xf9;" horiz-adv-x="684" 
d="M455 553h165v-553h-165v74q-30 -40 -75.5 -63t-106.5 -23q-101 0 -159.5 61t-58.5 169v335h165v-304q0 -114 105 -114q45 0 79.5 27t50.5 71v320zM401 617l-115 -11l-117 125l156 36z" />
    <glyph glyph-name="uacute" unicode="&#xfa;" horiz-adv-x="684" 
d="M455 553h165v-553h-165v74q-30 -40 -75.5 -63t-106.5 -23q-101 0 -159.5 61t-58.5 169v335h165v-304q0 -114 105 -114q45 0 79.5 27t50.5 71v320zM496 731l-117 -125l-115 11l77 150z" />
    <glyph glyph-name="ucircumflex" unicode="&#xfb;" horiz-adv-x="684" 
d="M455 553h165v-553h-165v74q-30 -40 -75.5 -63t-106.5 -23q-101 0 -159.5 61t-58.5 169v335h165v-304q0 -114 105 -114q45 0 79.5 27t50.5 71v320zM420 747l89 -146l-127 -7l-46 85l-46 -85l-127 7l89 146h168z" />
    <glyph glyph-name="udieresis" unicode="&#xfc;" horiz-adv-x="684" 
d="M455 553h165v-553h-165v74q-30 -40 -75.5 -63t-106.5 -23q-101 0 -159.5 61t-58.5 169v335h165v-304q0 -114 105 -114q45 0 79.5 27t50.5 71v320zM310 605h-108v129h108v-129zM472 605h-108v129h108v-129z" />
    <glyph glyph-name="yacute" unicode="&#xfd;" horiz-adv-x="659" 
d="M329 177l140 376h175l-233 -553l-71 -171h-170l77 175l-232 549h174zM489 731l-117 -125l-115 11l77 150z" />
    <glyph glyph-name="thorn" unicode="&#xfe;" horiz-adv-x="711" 
d="M63 -172v910h165v-247q68 74 181 74q73 0 133.5 -37t95.5 -103.5t35 -149.5q0 -84 -34.5 -149.5t-95 -101.5t-135.5 -36q-113 0 -180 73v-233h-165zM470 170.5q38 40.5 38 104.5q0 67 -37.5 107.5t-99.5 40.5q-65 0 -103.5 -42t-39.5 -104q0 -67 39.5 -107t103.5 -40
q61 0 99 40.5z" />
    <glyph glyph-name="ydieresis" unicode="&#xff;" horiz-adv-x="659" 
d="M329 177l140 376h175l-233 -553l-71 -171h-170l77 175l-232 549h174zM303 605h-108v129h108v-129zM465 605h-108v129h108v-129z" />
    <glyph glyph-name="Amacron" unicode="&#x100;" horiz-adv-x="805" 
d="M796 0h-181l-46 115h-336l-46 -115h-178l290 700h206zM402 533l-115 -286h229zM570 759h-347v102h347v-102z" />
    <glyph glyph-name="amacron" unicode="&#x101;" horiz-adv-x="621" 
d="M498 501.5q68 -63.5 68 -178.5v-323h-165v70q-25 -36 -72 -59t-110 -23q-57 0 -101 22t-68 62t-24 92q0 80 55 127t165 47q79 0 154 -7v4q0 94 -128 94q-93 0 -170 -30l-16 136q98 30 204 30q140 0 208 -63.5zM364 147.5q32 29.5 36 78.5v14q-48 6 -107 6
q-109 0 -109 -67q0 -30 24 -45.5t67 -15.5q57 0 89 29.5zM466 617h-347v102h347v-102z" />
    <glyph glyph-name="Abreve" unicode="&#x102;" horiz-adv-x="805" 
d="M796 0h-181l-46 115h-336l-46 -115h-178l290 700h206zM402 533l-115 -286h229zM565 881q0 -68 -43.5 -107t-124.5 -39q-80 0 -123.5 39t-43.5 107h120q0 -28 11.5 -41.5t35.5 -13.5q25 0 36.5 13.5t11.5 41.5h120z" />
    <glyph glyph-name="abreve" unicode="&#x103;" horiz-adv-x="621" 
d="M498 501.5q68 -63.5 68 -178.5v-323h-165v70q-25 -36 -72 -59t-110 -23q-57 0 -101 22t-68 62t-24 92q0 80 55 127t165 47q79 0 154 -7v4q0 94 -128 94q-93 0 -170 -30l-16 136q98 30 204 30q140 0 208 -63.5zM364 147.5q32 29.5 36 78.5v14q-48 6 -107 6
q-109 0 -109 -67q0 -30 24 -45.5t67 -15.5q57 0 89 29.5zM461 743q0 -68 -43.5 -107t-124.5 -39q-80 0 -123.5 39t-43.5 107h120q0 -28 11.5 -41.5t35.5 -13.5q25 0 36.5 13.5t11.5 41.5h120z" />
    <glyph glyph-name="Aogonek" unicode="&#x104;" horiz-adv-x="805" 
d="M824 -198q-50 -11 -97 -11q-69 0 -105.5 27t-36.5 70q0 33 22 62t57 50h-49l-46 115h-336l-46 -115h-178l290 700h206l291 -700h-4q-30 -18 -46 -37t-16 -36q0 -36 49 -36q19 0 38 4zM402 533l-115 -286h229z" />
    <glyph glyph-name="aogonek" unicode="&#x105;" horiz-adv-x="621" 
d="M594 -198q-49 -11 -97 -11q-69 0 -105.5 27t-36.5 70q0 33 22 62t57 50h-33v70q-25 -36 -72 -59t-110 -23q-57 0 -101 22t-68 62t-24 92q0 80 55 127t165 47q79 0 154 -7v4q0 94 -128 94q-93 0 -170 -30l-16 136q98 30 204 30q140 0 208 -63.5t68 -178.5v-323h-4
q-30 -18 -46 -37t-16 -36q0 -36 49 -36q19 0 38 4zM364 147.5q32 29.5 36 78.5v14q-48 6 -107 6q-109 0 -109 -67q0 -30 24 -45.5t67 -15.5q57 0 89 29.5z" />
    <glyph glyph-name="Cacute" unicode="&#x106;" horiz-adv-x="724" 
d="M237 32q-87 45 -137.5 127.5t-50.5 190.5q0 110 49 192t134.5 126t191.5 44q142 0 270 -87l-73 -130q-95 68 -189 68q-59 0 -106 -25.5t-74 -73.5t-27 -113q0 -66 27.5 -114.5t74.5 -73.5t107 -25q95 0 190 67l72 -130q-126 -88 -265 -88q-107 0 -194 45zM582 849
l-107 -107l-129 7l88 130z" />
    <glyph glyph-name="cacute" unicode="&#x107;" horiz-adv-x="570" 
d="M184.5 24.5q-68.5 35.5 -108 101t-39.5 151.5q0 85 41 150.5t109.5 101.5t149.5 36q63 0 115.5 -16.5t101.5 -53.5l-67 -119q-36 26 -67.5 37.5t-67.5 11.5q-65 0 -106 -39t-41 -109t41 -109.5t107 -39.5q69 0 136 46l65 -116q-54 -39 -103.5 -54t-113.5 -15
q-84 0 -152.5 35.5zM501 730l-117 -125l-115 11l77 150z" />
    <glyph glyph-name="Ccircumflex" unicode="&#x108;" horiz-adv-x="724" 
d="M237 32q-87 45 -137.5 127.5t-50.5 190.5q0 110 49 192t134.5 126t191.5 44q142 0 270 -87l-73 -130q-95 68 -189 68q-59 0 -106 -25.5t-74 -73.5t-27 -113q0 -66 27.5 -114.5t74.5 -73.5t107 -25q95 0 190 67l72 -130q-126 -88 -265 -88q-107 0 -194 45zM504 876
l93 -132l-133 -6l-47 77l-48 -77l-133 6l93 132h175z" />
    <glyph glyph-name="ccircumflex" unicode="&#x109;" horiz-adv-x="570" 
d="M184.5 24.5q-68.5 35.5 -108 101t-39.5 151.5q0 85 41 150.5t109.5 101.5t149.5 36q63 0 115.5 -16.5t101.5 -53.5l-67 -119q-36 26 -67.5 37.5t-67.5 11.5q-65 0 -106 -39t-41 -109t41 -109.5t107 -39.5q69 0 136 46l65 -116q-54 -39 -103.5 -54t-113.5 -15
q-84 0 -152.5 35.5zM425 746l89 -146l-127 -7l-46 85l-46 -85l-127 7l89 146h168z" />
    <glyph glyph-name="Cdotaccent" unicode="&#x10a;" horiz-adv-x="724" 
d="M237 32q-87 45 -137.5 127.5t-50.5 190.5q0 110 49 192t134.5 126t191.5 44q142 0 270 -87l-73 -130q-95 68 -189 68q-59 0 -106 -25.5t-74 -73.5t-27 -113q0 -66 27.5 -114.5t74.5 -73.5t107 -25q95 0 190 67l72 -130q-126 -88 -265 -88q-107 0 -194 45zM502 747h-171
v125h171v-125z" />
    <glyph glyph-name="cdotaccent" unicode="&#x10b;" horiz-adv-x="570" 
d="M184.5 24.5q-68.5 35.5 -108 101t-39.5 151.5q0 85 41 150.5t109.5 101.5t149.5 36q63 0 115.5 -16.5t101.5 -53.5l-67 -119q-36 26 -67.5 37.5t-67.5 11.5q-65 0 -106 -39t-41 -109t41 -109.5t107 -39.5q69 0 136 46l65 -116q-54 -39 -103.5 -54t-113.5 -15
q-84 0 -152.5 35.5zM427 604h-171v129h171v-129z" />
    <glyph glyph-name="Ccaron" unicode="&#x10c;" horiz-adv-x="724" 
d="M237 32q-87 45 -137.5 127.5t-50.5 190.5q0 110 49 192t134.5 126t191.5 44q142 0 270 -87l-73 -130q-95 68 -189 68q-59 0 -106 -25.5t-74 -73.5t-27 -113q0 -66 27.5 -114.5t74.5 -73.5t107 -25q95 0 190 67l72 -130q-126 -88 -265 -88q-107 0 -194 45zM417 803l48 76
l132 -6l-93 -130h-173l-93 130l131 6z" />
    <glyph glyph-name="ccaron" unicode="&#x10d;" horiz-adv-x="570" 
d="M184.5 24.5q-68.5 35.5 -108 101t-39.5 151.5q0 85 41 150.5t109.5 101.5t149.5 36q63 0 115.5 -16.5t101.5 -53.5l-67 -119q-36 26 -67.5 37.5t-67.5 11.5q-65 0 -106 -39t-41 -109t41 -109.5t107 -39.5q69 0 136 46l65 -116q-54 -39 -103.5 -54t-113.5 -15
q-84 0 -152.5 35.5zM341 664l46 85l127 -8l-89 -145h-168l-89 145l127 8z" />
    <glyph glyph-name="Dcaron" unicode="&#x10e;" horiz-adv-x="826" 
d="M76 0v700h311q117 0 205 -43t136 -122t48 -184q0 -106 -48 -185.5t-136 -122.5t-205 -43h-311zM379 147q102 0 160.5 54t58.5 149t-58.5 149t-160.5 54h-131v-406h131zM324 804l48 76l132 -6l-93 -130h-173l-93 130l131 6z" />
    <glyph glyph-name="dcaron" unicode="&#x10f;" horiz-adv-x="717" 
d="M174.5 25q-60.5 37 -96 103.5t-35.5 150.5q0 83 35 148.5t95.5 101.5t135.5 36q113 0 180 -73v246h164v-738h-164v62q-68 -74 -181 -74q-73 0 -133.5 37zM690 555v183h108l-31 -183h-77zM450 172q39 42 39 104q0 67 -39 107t-104 40q-61 0 -99.5 -40.5t-38.5 -104.5
q0 -67 38 -107.5t100 -40.5q65 0 104 42z" />
    <glyph glyph-name="Dcroat" unicode="&#x110;" horiz-adv-x="826" 
d="M387 700q117 0 205 -43t136 -122t48 -184q0 -106 -48 -185.5t-136 -122.5t-205 -43h-311v307h-50v92h50v301h311zM379 147q102 0 160.5 54t58.5 149t-58.5 149t-160.5 54h-131v-154h184v-92h-184v-160h131z" />
    <glyph glyph-name="dcroat" unicode="&#x111;" horiz-adv-x="717" 
d="M701 670v-80h-48v-590h-164v62q-68 -74 -181 -74q-73 0 -133.5 37t-96 103.5t-35.5 150.5q0 83 35 148.5t95.5 101.5t135.5 36q113 0 180 -73v98h-152v80h152v68h164v-68h48zM450 172q39 42 39 104q0 67 -39 107t-104 40q-61 0 -99.5 -40.5t-38.5 -104.5q0 -67 38 -107.5
t100 -40.5q65 0 104 42z" />
    <glyph glyph-name="Emacron" unicode="&#x112;" horiz-adv-x="698" 
d="M245 291v-149h411v-142h-580v700h570v-142h-401v-132h355v-135h-355zM520 759h-347v102h347v-102z" />
    <glyph glyph-name="emacron" unicode="&#x113;" horiz-adv-x="649" 
d="M203 228q12 -53 52.5 -79.5t103.5 -26.5q38 0 79.5 11t73.5 32l38 -121q-46 -30 -95.5 -43t-109.5 -13q-87 0 -157.5 36.5t-110.5 102.5t-40 150q0 82 38 148t106.5 103t156.5 37q78 0 140.5 -31.5t98 -87t35.5 -124.5q0 -47 -18 -94h-391zM247 404.5
q-33 -27.5 -44 -79.5l247 1q-2 52 -33.5 79t-83.5 27q-53 0 -86 -27.5zM500 616h-347v102h347v-102z" />
    <glyph glyph-name="Ebreve" unicode="&#x114;" horiz-adv-x="698" 
d="M245 291v-149h411v-142h-580v700h570v-142h-401v-132h355v-135h-355zM515 881q0 -68 -43.5 -107t-124.5 -39q-80 0 -123.5 39t-43.5 107h120q0 -28 11.5 -41.5t35.5 -13.5q25 0 36.5 13.5t11.5 41.5h120z" />
    <glyph glyph-name="ebreve" unicode="&#x115;" horiz-adv-x="649" 
d="M203 228q12 -53 52.5 -79.5t103.5 -26.5q38 0 79.5 11t73.5 32l38 -121q-46 -30 -95.5 -43t-109.5 -13q-87 0 -157.5 36.5t-110.5 102.5t-40 150q0 82 38 148t106.5 103t156.5 37q78 0 140.5 -31.5t98 -87t35.5 -124.5q0 -47 -18 -94h-391zM247 404.5
q-33 -27.5 -44 -79.5l247 1q-2 52 -33.5 79t-83.5 27q-53 0 -86 -27.5zM495 742q0 -68 -43.5 -107t-124.5 -39q-80 0 -123.5 39t-43.5 107h120q0 -28 11.5 -41.5t35.5 -13.5q25 0 36.5 13.5t11.5 41.5h120z" />
    <glyph glyph-name="Edotaccent" unicode="&#x116;" horiz-adv-x="698" 
d="M245 291v-149h411v-142h-580v700h570v-142h-401v-132h355v-135h-355zM433 748h-171v125h171v-125z" />
    <glyph glyph-name="edotaccent" unicode="&#x117;" horiz-adv-x="649" 
d="M203 228q12 -53 52.5 -79.5t103.5 -26.5q38 0 79.5 11t73.5 32l38 -121q-46 -30 -95.5 -43t-109.5 -13q-87 0 -157.5 36.5t-110.5 102.5t-40 150q0 82 38 148t106.5 103t156.5 37q78 0 140.5 -31.5t98 -87t35.5 -124.5q0 -47 -18 -94h-391zM247 404.5
q-33 -27.5 -44 -79.5l247 1q-2 52 -33.5 79t-83.5 27q-53 0 -86 -27.5zM412 605h-171v129h171v-129z" />
    <glyph glyph-name="Eogonek" unicode="&#x118;" horiz-adv-x="698" 
d="M689 -198q-50 -11 -97 -11q-69 0 -105.5 27t-36.5 70q0 33 22 62t57 50h-453v700h570v-142h-401v-132h355v-135h-355v-149h411v-142h1q-30 -18 -46 -37t-16 -36q0 -36 49 -36q19 0 38 4z" />
    <glyph glyph-name="eogonek" unicode="&#x119;" horiz-adv-x="649" 
d="M203 228q12 -53 52.5 -79.5t103.5 -26.5q38 0 79.5 11t73.5 32l38 -121h1q-30 -18 -46 -37t-16 -36q0 -36 49 -36q19 0 38 4l7 -93q-49 -11 -97 -11q-69 0 -105.5 27t-36.5 70q0 28 18 56h-17q-87 0 -157.5 36.5t-110.5 102.5t-40 150q0 82 38 148t106.5 103t156.5 37
q78 0 140.5 -31.5t98 -87t35.5 -124.5q0 -47 -18 -94h-391zM247 404.5q-33 -27.5 -44 -79.5l247 1q-2 52 -33.5 79t-83.5 27q-53 0 -86 -27.5z" />
    <glyph glyph-name="Ecaron" unicode="&#x11a;" horiz-adv-x="698" 
d="M245 291v-149h411v-142h-580v700h570v-142h-401v-132h355v-135h-355zM348 804l48 76l132 -6l-93 -130h-173l-93 130l131 6z" />
    <glyph glyph-name="ecaron" unicode="&#x11b;" horiz-adv-x="649" 
d="M203 228q12 -53 52.5 -79.5t103.5 -26.5q38 0 79.5 11t73.5 32l38 -121q-46 -30 -95.5 -43t-109.5 -13q-87 0 -157.5 36.5t-110.5 102.5t-40 150q0 82 38 148t106.5 103t156.5 37q78 0 140.5 -31.5t98 -87t35.5 -124.5q0 -47 -18 -94h-391zM247 404.5
q-33 -27.5 -44 -79.5l247 1q-2 52 -33.5 79t-83.5 27q-53 0 -86 -27.5zM327 665l46 85l127 -8l-89 -145h-168l-89 145l127 8z" />
    <glyph glyph-name="Gcircumflex" unicode="&#x11c;" horiz-adv-x="778" 
d="M497 381h233l-1 -301q-64 -42 -142 -67t-157 -25q-109 0 -196 46.5t-136 129t-49 185.5q0 111 53.5 193t142.5 126t194 44q141 0 263 -74l-67 -134q-94 59 -194 59q-61 0 -110 -25t-77.5 -73.5t-28.5 -115.5q0 -98 58 -155.5t154 -57.5q46 0 73 7.5t56 22.5v88h-69v127z
M528 877l93 -132l-133 -6l-47 77l-48 -77l-133 6l93 132h175z" />
    <glyph glyph-name="gcircumflex" unicode="&#x11d;" horiz-adv-x="647" 
d="M376 149q126 1 185 -39t59 -113q0 -84 -81 -132t-235 -48q-127 0 -193.5 36.5t-66.5 105.5q0 30 18.5 55t48.5 41q-24 15 -36.5 37.5t-12.5 48.5q0 33 18 59t47 42q-65 48 -65 137q0 87 68 137t187 50q72 0 116 -20l148 45l31 -111l-75 -11q18 -17 28 -40.5t10 -49.5
q0 -88 -68 -139t-188 -51q-52 0 -94 9q-11 -11 -11 -26q0 -14 11 -18.5t33 -4.5h118zM247.5 429q-24.5 -17 -24.5 -49q0 -35 24 -53.5t71 -18.5q46 0 70.5 18t24.5 53q0 33 -24 50t-71 17q-46 0 -70.5 -17zM425 -46.5q34 11.5 34 40.5q0 23 -26 30.5t-86 7.5h-122
q-24 -22 -24 -44q0 -27 28.5 -36.5t86.5 -9.5q75 0 109 11.5zM405 752l89 -146l-127 -7l-46 85l-46 -85l-127 7l89 146h168z" />
    <glyph glyph-name="Gbreve" unicode="&#x11e;" horiz-adv-x="778" 
d="M497 381h233l-1 -301q-64 -42 -142 -67t-157 -25q-109 0 -196 46.5t-136 129t-49 185.5q0 111 53.5 193t142.5 126t194 44q141 0 263 -74l-67 -134q-94 59 -194 59q-61 0 -110 -25t-77.5 -73.5t-28.5 -115.5q0 -98 58 -155.5t154 -57.5q46 0 73 7.5t56 22.5v88h-69v127z
M608 881q0 -68 -43.5 -107t-124.5 -39q-80 0 -123.5 39t-43.5 107h120q0 -28 11.5 -41.5t35.5 -13.5q25 0 36.5 13.5t11.5 41.5h120z" />
    <glyph glyph-name="gbreve" unicode="&#x11f;" horiz-adv-x="647" 
d="M376 149q126 1 185 -39t59 -113q0 -84 -81 -132t-235 -48q-127 0 -193.5 36.5t-66.5 105.5q0 30 18.5 55t48.5 41q-24 15 -36.5 37.5t-12.5 48.5q0 33 18 59t47 42q-65 48 -65 137q0 87 68 137t187 50q72 0 116 -20l148 45l31 -111l-75 -11q18 -17 28 -40.5t10 -49.5
q0 -88 -68 -139t-188 -51q-52 0 -94 9q-11 -11 -11 -26q0 -14 11 -18.5t33 -4.5h118zM247.5 429q-24.5 -17 -24.5 -49q0 -35 24 -53.5t71 -18.5q46 0 70.5 18t24.5 53q0 33 -24 50t-71 17q-46 0 -70.5 -17zM425 -46.5q34 11.5 34 40.5q0 23 -26 30.5t-86 7.5h-122
q-24 -22 -24 -44q0 -27 28.5 -36.5t86.5 -9.5q75 0 109 11.5zM489 747q0 -68 -43.5 -107t-124.5 -39q-80 0 -123.5 39t-43.5 107h120q0 -28 11.5 -41.5t35.5 -13.5q25 0 36.5 13.5t11.5 41.5h120z" />
    <glyph glyph-name="Gdotaccent" unicode="&#x120;" horiz-adv-x="778" 
d="M497 381h233l-1 -301q-64 -42 -142 -67t-157 -25q-109 0 -196 46.5t-136 129t-49 185.5q0 111 53.5 193t142.5 126t194 44q141 0 263 -74l-67 -134q-94 59 -194 59q-61 0 -110 -25t-77.5 -73.5t-28.5 -115.5q0 -98 58 -155.5t154 -57.5q46 0 73 7.5t56 22.5v88h-69v127z
M526 748h-171v125h171v-125z" />
    <glyph glyph-name="gdotaccent" unicode="&#x121;" horiz-adv-x="647" 
d="M376 149q126 1 185 -39t59 -113q0 -84 -81 -132t-235 -48q-127 0 -193.5 36.5t-66.5 105.5q0 30 18.5 55t48.5 41q-24 15 -36.5 37.5t-12.5 48.5q0 33 18 59t47 42q-65 48 -65 137q0 87 68 137t187 50q72 0 116 -20l148 45l31 -111l-75 -11q18 -17 28 -40.5t10 -49.5
q0 -88 -68 -139t-188 -51q-52 0 -94 9q-11 -11 -11 -26q0 -14 11 -18.5t33 -4.5h118zM247.5 429q-24.5 -17 -24.5 -49q0 -35 24 -53.5t71 -18.5q46 0 70.5 18t24.5 53q0 33 -24 50t-71 17q-46 0 -70.5 -17zM425 -46.5q34 11.5 34 40.5q0 23 -26 30.5t-86 7.5h-122
q-24 -22 -24 -44q0 -27 28.5 -36.5t86.5 -9.5q75 0 109 11.5zM407 610h-171v129h171v-129z" />
    <glyph glyph-name="uni0122" unicode="&#x122;" horiz-adv-x="778" 
d="M497 381h233l-1 -301q-64 -42 -142 -67t-157 -25q-109 0 -196 46.5t-136 129t-49 185.5q0 111 53.5 193t142.5 126t194 44q141 0 263 -74l-67 -134q-94 59 -194 59q-61 0 -110 -25t-77.5 -73.5t-28.5 -115.5q0 -98 58 -155.5t154 -57.5q46 0 73 7.5t56 22.5v88h-69v127z
M342 -191q29 11 41 27t11 38h-56v90h131q9 -36 9 -65q0 -102 -111 -139z" />
    <glyph glyph-name="uni0123" unicode="&#x123;" horiz-adv-x="647" 
d="M376 149q126 1 185 -39t59 -113q0 -84 -81 -132t-235 -48q-127 0 -193.5 36.5t-66.5 105.5q0 30 18.5 55t48.5 41q-24 15 -36.5 37.5t-12.5 48.5q0 33 18 59t47 42q-65 48 -65 137q0 87 68 137t187 50q72 0 116 -20l148 45l31 -111l-75 -11q18 -17 28 -40.5t10 -49.5
q0 -88 -68 -139t-188 -51q-52 0 -94 9q-11 -11 -11 -26q0 -14 11 -18.5t33 -4.5h118zM247.5 429q-24.5 -17 -24.5 -49q0 -35 24 -53.5t71 -18.5q46 0 70.5 18t24.5 53q0 33 -24 50t-71 17q-46 0 -70.5 -17zM425 -46.5q34 11.5 34 40.5q0 23 -26 30.5t-86 7.5h-122
q-24 -22 -24 -44q0 -27 28.5 -36.5t86.5 -9.5q75 0 109 11.5zM386 752q-29 -10 -40.5 -26t-10.5 -38h55v-90h-131q-9 36 -9 63q0 56 30 89.5t82 50.5z" />
    <glyph glyph-name="Hcircumflex" unicode="&#x124;" horiz-adv-x="811" 
d="M562 418v282h173v-700h-173v275h-313v-275h-173v700h173v-282h313zM493 877l93 -132l-133 -6l-47 77l-48 -77l-133 6l93 132h175z" />
    <glyph glyph-name="hcircumflex" unicode="&#x125;" horiz-adv-x="683" 
d="M569.5 504q58.5 -61 58.5 -169v-335h-165v304q0 114 -105 114q-45 0 -79.5 -27t-50.5 -71v-320h-165v738h165v-259q30 40 76 63t106 23q101 0 159.5 -61zM440 900l93 -132l-133 -6l-47 77l-48 -77l-133 6l93 132h175z" />
    <glyph glyph-name="Hbar" unicode="&#x126;" horiz-adv-x="811" 
d="M735 589h38v-91h-38v-498h-173v275h-313v-275h-173v498h-29v91h29v111h173v-111h313v111h173v-111zM249 418h313v80h-313v-80z" />
    <glyph glyph-name="hbar" unicode="&#x127;" horiz-adv-x="683" 
d="M569.5 504q58.5 -61 58.5 -169v-335h-165v304q0 114 -105 114q-45 0 -79.5 -27t-50.5 -71v-320h-165v592h-59v80h59v66h165v-66h140v-80h-140v-113q30 40 76 63t106 23q101 0 159.5 -61z" />
    <glyph glyph-name="Itilde" unicode="&#x128;" horiz-adv-x="324" 
d="M248 0h-172v700h172v-700zM-17 752q0 53 27.5 84.5t72.5 31.5q21 0 40 -5t43 -14q35 -13 50 -13q19 0 31 11.5t12 30.5l75 -18q0 -53 -28 -84.5t-73 -31.5q-21 0 -38.5 5t-42.5 14q-35 13 -52 13q-19 0 -30.5 -11.5t-11.5 -30.5z" />
    <glyph glyph-name="itilde" unicode="&#x129;" horiz-adv-x="291" 
d="M228 0h-165v553h165v-553zM-30 613q0 53 27.5 84.5t72.5 31.5q21 0 40 -5t43 -14q35 -13 50 -13q19 0 31 11.5t12 30.5l75 -18q0 -53 -28 -84.5t-73 -31.5q-21 0 -38.5 5t-42.5 14q-35 13 -52 13q-19 0 -30.5 -11.5t-11.5 -30.5z" />
    <glyph glyph-name="Imacron" unicode="&#x12a;" horiz-adv-x="324" 
d="M248 0h-172v700h172v-700zM335 759h-347v102h347v-102z" />
    <glyph glyph-name="imacron" unicode="&#x12b;" horiz-adv-x="291" 
d="M228 0h-165v553h165v-553zM318 616h-347v102h347v-102z" />
    <glyph glyph-name="Ibreve" unicode="&#x12c;" horiz-adv-x="324" 
d="M248 0h-172v700h172v-700zM330 881q0 -68 -43.5 -107t-124.5 -39q-80 0 -123.5 39t-43.5 107h120q0 -28 11.5 -41.5t35.5 -13.5q25 0 36.5 13.5t11.5 41.5h120z" />
    <glyph glyph-name="ibreve" unicode="&#x12d;" horiz-adv-x="291" 
d="M228 0h-165v553h165v-553zM313 742q0 -68 -43.5 -107t-124.5 -39q-80 0 -123.5 39t-43.5 107h120q0 -28 11.5 -41.5t35.5 -13.5q25 0 36.5 13.5t11.5 41.5h120z" />
    <glyph glyph-name="Iogonek" unicode="&#x12e;" horiz-adv-x="324" 
d="M281 -198q-49 -11 -97 -11q-69 0 -105.5 27t-36.5 70q0 33 22 62t57 50h-45v700h172v-700h1q-30 -18 -46 -37t-16 -36q0 -36 49 -36q19 0 38 4z" />
    <glyph glyph-name="iogonek" unicode="&#x12f;" horiz-adv-x="291" 
d="M60 734h171v-129h-171v129zM261 -198q-49 -11 -97 -11q-69 0 -105.5 27t-36.5 70q0 33 22 62t57 50h-38v553h165v-553h1q-30 -18 -46 -37t-16 -36q0 -36 49 -36q19 0 38 4z" />
    <glyph glyph-name="Idotaccent" unicode="&#x130;" horiz-adv-x="324" 
d="M248 0h-172v700h172v-700zM248 748h-171v125h171v-125z" />
    <glyph glyph-name="dotlessi" unicode="&#x131;" horiz-adv-x="291" 
d="M228 0h-165v553h165v-553z" />
    <glyph glyph-name="IJ" unicode="&#x132;" horiz-adv-x="884" 
d="M248 0h-172v700h172v-700zM437.5 3q-56.5 16 -108.5 47l51 140q79 -53 155 -53q55 0 87.5 32.5t32.5 95.5v294h-121v141h290v-447q0 -83 -37 -143.5t-99.5 -91.5t-139.5 -31q-54 0 -110.5 16z" />
    <glyph glyph-name="ij" unicode="&#x133;" horiz-adv-x="593" 
d="M228 0h-165v553h165v-553zM231 605h-171v129h171v-129zM252 -48h51q28 0 44.5 16.5t16.5 46.5v538h166v-538q0 -98 -58 -147.5t-148 -49.5q-40 0 -74 9zM532 605h-171v129h171v-129z" />
    <glyph glyph-name="Jcircumflex" unicode="&#x134;" horiz-adv-x="559" 
d="M113.5 3q-56.5 16 -108.5 47l51 140q79 -53 155 -53q55 0 87.5 32.5t32.5 95.5v294h-121v141h290v-447q0 -83 -37 -143.5t-99.5 -91.5t-139.5 -31q-54 0 -110.5 16zM441 877l93 -132l-133 -6l-47 77l-48 -77l-133 6l93 132h175z" />
    <glyph glyph-name="jcircumflex" unicode="&#x135;" horiz-adv-x="302" 
d="M-39 -48h51q28 0 44.5 16.5t16.5 46.5v538h166v-538q0 -98 -58 -147.5t-148 -49.5q-40 0 -74 9zM239 747l89 -146l-127 -7l-46 85l-46 -85l-127 7l89 146h168z" />
    <glyph glyph-name="uni0136" unicode="&#x136;" horiz-adv-x="744" 
d="M425 356l304 -355h-209l-271 316v-317h-172l-1 700h173v-309l263 310h210zM317 -191q29 11 41 27t11 38h-56v90h131q9 -36 9 -65q0 -102 -111 -139z" />
    <glyph glyph-name="uni0137" unicode="&#x137;" horiz-adv-x="640" 
d="M416 553h209l-246 -273l246 -280h-207l-190 224v-224h-165v738h165v-403zM259 -191q29 11 41 27t11 38h-56v90h131q9 -36 9 -65q0 -102 -111 -139z" />
    <glyph glyph-name="kgreenlandic" unicode="&#x138;" horiz-adv-x="640" 
d="M416 553h209l-246 -273l246 -280h-207l-190 224v-224h-165v553h165v-218z" />
    <glyph glyph-name="Lacute" unicode="&#x139;" horiz-adv-x="624" 
d="M607 0h-531v700h170v-554h361v-146zM352 850l-107 -107l-129 7l88 130z" />
    <glyph glyph-name="lacute" unicode="&#x13a;" horiz-adv-x="291" 
d="M228 0h-165v738h165v-738zM311 888l-107 -107l-129 7l88 130z" />
    <glyph glyph-name="uni013B" unicode="&#x13b;" horiz-adv-x="624" 
d="M607 0h-531v700h170v-554h361v-146zM248 -191q29 11 41 27t11 38h-56v90h131q9 -36 9 -65q0 -102 -111 -139z" />
    <glyph glyph-name="uni013C" unicode="&#x13c;" horiz-adv-x="291" 
d="M228 0h-165v738h165v-738zM80 -191q29 11 41 27t11 38h-56v90h131q9 -36 9 -65q0 -102 -111 -139z" />
    <glyph glyph-name="Lcaron" unicode="&#x13d;" horiz-adv-x="624" 
d="M607 0h-531v700h170v-554h361v-146zM451 517v183h123l-35 -183h-88z" />
    <glyph glyph-name="lcaron" unicode="&#x13e;" horiz-adv-x="291" 
d="M228 0h-165v738h165v-738zM263 555v183h109l-31 -183h-78z" />
    <glyph glyph-name="Ldot" unicode="&#x13f;" horiz-adv-x="831" 
d="M607 0h-531v700h170v-554h361v-146zM650 241v127h146v-127h-146z" />
    <glyph glyph-name="ldot" unicode="&#x140;" horiz-adv-x="456" 
d="M228 0h-165v738h165v-738zM318 184v97h112v-97h-112z" />
    <glyph glyph-name="Lslash" unicode="&#x141;" horiz-adv-x="624" 
d="M246 356v-210h361v-146h-531v271l-50 -25l-36 71l86 43v340h170v-256l56 28l35 -71z" />
    <glyph glyph-name="lslash" unicode="&#x142;" horiz-adv-x="291" 
d="M283 485l35 -71l-90 -45v-369h-165v287l-56 -28l-36 71l92 46v362h165v-280z" />
    <glyph glyph-name="Nacute" unicode="&#x143;" horiz-adv-x="832" 
d="M248 0h-172v700h159l349 -427v427h172v-700h-154l-354 434v-434zM583 850l-107 -107l-129 7l88 130z" />
    <glyph glyph-name="nacute" unicode="&#x144;" horiz-adv-x="683" 
d="M569.5 504q58.5 -61 58.5 -169v-335h-165v304q0 114 -105 114q-45 0 -79.5 -27t-50.5 -71v-320h-165v553h165v-74q30 40 76 63t106 23q101 0 159.5 -61zM501 731l-117 -125l-115 11l77 150z" />
    <glyph glyph-name="uni0145" unicode="&#x145;" horiz-adv-x="832" 
d="M248 0h-172v700h159l349 -427v427h172v-700h-154l-354 434v-434zM351 -191q29 11 41 27t11 38h-56v90h131q9 -36 9 -65q0 -102 -111 -139z" />
    <glyph glyph-name="uni0146" unicode="&#x146;" horiz-adv-x="683" 
d="M569.5 504q58.5 -61 58.5 -169v-335h-165v304q0 114 -105 114q-45 0 -79.5 -27t-50.5 -71v-320h-165v553h165v-74q30 40 76 63t106 23q101 0 159.5 -61zM276 -191q29 11 41 27t11 38h-56v90h131q9 -36 9 -65q0 -102 -111 -139z" />
    <glyph glyph-name="Ncaron" unicode="&#x147;" horiz-adv-x="832" 
d="M248 0h-172v700h159l349 -427v427h172v-700h-154l-354 434v-434zM418 804l48 76l132 -6l-93 -130h-173l-93 130l131 6z" />
    <glyph glyph-name="ncaron" unicode="&#x148;" horiz-adv-x="683" 
d="M569.5 504q58.5 -61 58.5 -169v-335h-165v304q0 114 -105 114q-45 0 -79.5 -27t-50.5 -71v-320h-165v553h165v-74q30 40 76 63t106 23q101 0 159.5 -61zM342 665l46 85l127 -8l-89 -145h-168l-89 145l127 8z" />
    <glyph glyph-name="Eng" unicode="&#x14a;" horiz-adv-x="832" 
d="M584 700h172v-701q0 -91 -55 -140t-158 -49q-20 0 -37 3v139h12q32 0 50 15.5t19 51.5l-339 415v-434h-172v700h159l349 -427v427z" />
    <glyph glyph-name="eng" unicode="&#x14b;" horiz-adv-x="683" 
d="M569.5 504q58.5 -61 58.5 -169v-336q0 -91 -53.5 -140t-153.5 -49q-21 0 -36 3v139h11q29 0 46 13t21 42v297q0 114 -105 114q-45 0 -79.5 -27t-50.5 -71v-320h-165v553h165v-74q30 40 76 63t106 23q101 0 159.5 -61z" />
    <glyph glyph-name="Omacron" unicode="&#x14c;" horiz-adv-x="855" 
d="M232.5 34.5q-86.5 46.5 -135 129t-48.5 186.5t49 186.5t135 129t195 46.5q108 0 194.5 -46.5t135 -129t48.5 -186.5t-49 -186.5t-135 -129t-195 -46.5q-108 0 -194.5 46.5zM531 164.5q45 26.5 70.5 74.5t25.5 111t-25.5 111t-70.5 74.5t-103 26.5t-103.5 -26.5t-71 -74.5
t-25.5 -111t25.5 -111t71 -74.5t103.5 -26.5t103 26.5zM600 759h-347v102h347v-102z" />
    <glyph glyph-name="omacron" unicode="&#x14d;" 
d="M187.5 25.5q-70.5 37.5 -110.5 103.5t-40 148t40 148t111 103t159 37t158.5 -37t110.5 -102.5t40 -147.5q0 -83 -40 -149t-110.5 -103.5t-159.5 -37.5q-88 0 -158.5 37.5zM449 171q40 41 40 106q0 66 -40 106.5t-103 40.5q-62 0 -102 -40t-40 -105q0 -67 40 -108t103 -41
q62 0 102 41zM519 616h-347v102h347v-102z" />
    <glyph glyph-name="Obreve" unicode="&#x14e;" horiz-adv-x="855" 
d="M232.5 34.5q-86.5 46.5 -135 129t-48.5 186.5t49 186.5t135 129t195 46.5q108 0 194.5 -46.5t135 -129t48.5 -186.5t-49 -186.5t-135 -129t-195 -46.5q-108 0 -194.5 46.5zM531 164.5q45 26.5 70.5 74.5t25.5 111t-25.5 111t-70.5 74.5t-103 26.5t-103.5 -26.5t-71 -74.5
t-25.5 -111t25.5 -111t71 -74.5t103.5 -26.5t103 26.5zM595 881q0 -68 -43.5 -107t-124.5 -39q-80 0 -123.5 39t-43.5 107h120q0 -28 11.5 -41.5t35.5 -13.5q25 0 36.5 13.5t11.5 41.5h120z" />
    <glyph glyph-name="obreve" unicode="&#x14f;" 
d="M187.5 25.5q-70.5 37.5 -110.5 103.5t-40 148t40 148t111 103t159 37t158.5 -37t110.5 -102.5t40 -147.5q0 -83 -40 -149t-110.5 -103.5t-159.5 -37.5q-88 0 -158.5 37.5zM449 171q40 41 40 106q0 66 -40 106.5t-103 40.5q-62 0 -102 -40t-40 -105q0 -67 40 -108t103 -41
q62 0 102 41zM514 742q0 -68 -43.5 -107t-124.5 -39q-80 0 -123.5 39t-43.5 107h120q0 -28 11.5 -41.5t35.5 -13.5q25 0 36.5 13.5t11.5 41.5h120z" />
    <glyph glyph-name="Ohungarumlaut" unicode="&#x150;" horiz-adv-x="855" 
d="M232.5 34.5q-86.5 46.5 -135 129t-48.5 186.5t49 186.5t135 129t195 46.5q108 0 194.5 -46.5t135 -129t48.5 -186.5t-49 -186.5t-135 -129t-195 -46.5q-108 0 -194.5 46.5zM531 164.5q45 26.5 70.5 74.5t25.5 111t-25.5 111t-70.5 74.5t-103 26.5t-103.5 -26.5t-71 -74.5
t-25.5 -111t25.5 -111t71 -74.5t103.5 -26.5t103 26.5zM469 850l-90 -107l-124 7l69 130zM654 850l-90 -107l-124 7l69 130z" />
    <glyph glyph-name="ohungarumlaut" unicode="&#x151;" 
d="M187.5 25.5q-70.5 37.5 -110.5 103.5t-40 148t40 148t111 103t159 37t158.5 -37t110.5 -102.5t40 -147.5q0 -83 -40 -149t-110.5 -103.5t-159.5 -37.5q-88 0 -158.5 37.5zM449 171q40 41 40 106q0 66 -40 106.5t-103 40.5q-62 0 -102 -40t-40 -105q0 -67 40 -108t103 -41
q62 0 102 41zM382 731l-98 -125l-111 11l56 150zM587 731l-97 -125l-111 11l56 150z" />
    <glyph glyph-name="OE" unicode="&#x152;" horiz-adv-x="1208" 
d="M755 142h411v-142h-580v16q-74 -29 -155 -29q-107 0 -194 45t-137.5 127.5t-50.5 190.5q0 110 49 192t134.5 126t191.5 44q81 0 162 -30v18h570v-142h-401v-132h355v-135h-355v-149zM586 181v337q-78 45 -154 45q-59 0 -106 -25.5t-74 -73.5t-27 -113q0 -66 27.5 -114.5
t74.5 -73.5t107 -25q76 0 152 43z" />
    <glyph glyph-name="oe" unicode="&#x153;" horiz-adv-x="1107" 
d="M661 228q12 -53 52.5 -79.5t103.5 -26.5q38 0 79.5 11t73.5 32l38 -121q-46 -30 -95.5 -43t-109.5 -13q-69 0 -127.5 23t-100.5 65q-43 -42 -101.5 -65t-127.5 -23q-88 0 -158.5 37.5t-110.5 103.5t-40 148t40 148t111 103t159 37q68 0 126.5 -22.5t100.5 -63.5
q40 41 97 63.5t125 22.5q78 0 140.5 -31.5t98 -87t35.5 -124.5q0 -47 -18 -94h-391zM705 404.5q-33 -27.5 -44 -79.5l247 1q-2 52 -33.5 79t-83.5 27q-53 0 -86 -27.5zM449 171q40 41 40 106q0 66 -40 106.5t-103 40.5q-62 0 -102 -40t-40 -105q0 -67 40 -108t103 -41
q62 0 102 41z" />
    <glyph glyph-name="Racute" unicode="&#x154;" horiz-adv-x="724" 
d="M506 0l-164 216h-94v-216h-172v700h304q146 0 228.5 -64.5t82.5 -178.5q0 -81 -42 -137.5t-121 -82.5l178 -237h-200zM248 557v-203h127q71 0 107.5 24t36.5 76t-37 77.5t-107 25.5h-127zM528 850l-107 -107l-129 7l88 130z" />
    <glyph glyph-name="racute" unicode="&#x155;" horiz-adv-x="456" 
d="M453 556l-18 -147h-73q-62 0 -98 -50.5t-36 -132.5v-226h-165v553h165v-84q47 95 156 95q36 0 69 -8zM368 731l-117 -125l-115 11l77 150z" />
    <glyph glyph-name="uni0156" unicode="&#x156;" horiz-adv-x="724" 
d="M506 0l-164 216h-94v-216h-172v700h304q146 0 228.5 -64.5t82.5 -178.5q0 -81 -42 -137.5t-121 -82.5l178 -237h-200zM248 557v-203h127q71 0 107.5 24t36.5 76t-37 77.5t-107 25.5h-127zM294 -191q29 11 41 27t11 38h-56v90h131q9 -36 9 -65q0 -102 -111 -139z" />
    <glyph glyph-name="uni0157" unicode="&#x157;" horiz-adv-x="456" 
d="M453 556l-18 -147h-73q-62 0 -98 -50.5t-36 -132.5v-226h-165v553h165v-84q47 95 156 95q36 0 69 -8zM83 -191q29 11 41 27t11 38h-56v90h131q9 -36 9 -65q0 -102 -111 -139z" />
    <glyph glyph-name="Rcaron" unicode="&#x158;" horiz-adv-x="724" 
d="M506 0l-164 216h-94v-216h-172v700h304q146 0 228.5 -64.5t82.5 -178.5q0 -81 -42 -137.5t-121 -82.5l178 -237h-200zM248 557v-203h127q71 0 107.5 24t36.5 76t-37 77.5t-107 25.5h-127zM363 804l48 76l132 -6l-93 -130h-173l-93 130l131 6z" />
    <glyph glyph-name="rcaron" unicode="&#x159;" horiz-adv-x="456" 
d="M453 556l-18 -147h-73q-62 0 -98 -50.5t-36 -132.5v-226h-165v553h165v-84q47 95 156 95q36 0 69 -8zM209 665l46 85l127 -8l-89 -145h-168l-89 145l127 8z" />
    <glyph glyph-name="Sacute" unicode="&#x15a;" horiz-adv-x="669" 
d="M170.5 2.5q-75.5 15.5 -134.5 46.5l14 146q54 -28 134.5 -45.5t144.5 -17.5q62 0 96.5 14.5t34.5 53.5q0 28 -15 43.5t-43 24.5t-85 20q-94 16 -152.5 39.5t-89 64t-30.5 103.5q0 69 40.5 118t108.5 74t150 25q141 0 255 -52l-21 -146q-128 54 -234 54q-57 0 -86.5 -14
t-29.5 -52q0 -22 12 -35t39.5 -22t81.5 -19q143 -25 212 -74.5t69 -144.5q0 -71 -41.5 -120.5t-112.5 -74.5t-159 -25q-83 0 -158.5 15.5zM504 850l-107 -107l-129 7l88 130z" />
    <glyph glyph-name="sacute" unicode="&#x15b;" horiz-adv-x="542" 
d="M135.5 0.5q-57.5 12.5 -111.5 37.5l24 135q53 -26 111.5 -39.5t114.5 -13.5q39 0 62 9.5t23 34.5q0 21 -23.5 32.5t-87.5 22.5q-81 13 -128 34t-68 53.5t-21 80.5q1 88 70 133t173 45q105 0 211 -40l-21 -135q-42 20 -95.5 32t-104.5 12q-37 0 -55 -8.5t-19 -28.5
q0 -18 21 -28.5t82 -21.5q123 -23 173.5 -64.5t50.5 -113.5q-1 -89 -71.5 -135t-181.5 -46q-71 0 -128.5 12.5zM427 731l-117 -125l-115 11l77 150z" />
    <glyph glyph-name="Scircumflex" unicode="&#x15c;" horiz-adv-x="669" 
d="M170.5 2.5q-75.5 15.5 -134.5 46.5l14 146q54 -28 134.5 -45.5t144.5 -17.5q62 0 96.5 14.5t34.5 53.5q0 28 -15 43.5t-43 24.5t-85 20q-94 16 -152.5 39.5t-89 64t-30.5 103.5q0 69 40.5 118t108.5 74t150 25q141 0 255 -52l-21 -146q-128 54 -234 54q-57 0 -86.5 -14
t-29.5 -52q0 -22 12 -35t39.5 -22t81.5 -19q143 -25 212 -74.5t69 -144.5q0 -71 -41.5 -120.5t-112.5 -74.5t-159 -25q-83 0 -158.5 15.5zM425 877l93 -132l-133 -6l-47 77l-48 -77l-133 6l93 132h175z" />
    <glyph glyph-name="scircumflex" unicode="&#x15d;" horiz-adv-x="542" 
d="M135.5 0.5q-57.5 12.5 -111.5 37.5l24 135q53 -26 111.5 -39.5t114.5 -13.5q39 0 62 9.5t23 34.5q0 21 -23.5 32.5t-87.5 22.5q-81 13 -128 34t-68 53.5t-21 80.5q1 88 70 133t173 45q105 0 211 -40l-21 -135q-42 20 -95.5 32t-104.5 12q-37 0 -55 -8.5t-19 -28.5
q0 -18 21 -28.5t82 -21.5q123 -23 173.5 -64.5t50.5 -113.5q-1 -89 -71.5 -135t-181.5 -46q-71 0 -128.5 12.5zM352 747l89 -146l-127 -7l-46 85l-46 -85l-127 7l89 146h168z" />
    <glyph glyph-name="Scedilla" unicode="&#x15e;" horiz-adv-x="669" 
d="M568 54.5q-74 -56.5 -191 -65.5l-7 -22q33 -6 52.5 -24.5t19.5 -44.5q0 -36 -34.5 -56.5t-95.5 -20.5q-40 0 -70 6l15 70q20 -5 38 -5q29 0 29 16q0 24 -53 20l16 60q-151 8 -251 61l14 146q54 -28 134.5 -45.5t144.5 -17.5q62 0 96.5 14.5t34.5 53.5q0 28 -15 43.5
t-43 24.5t-85 20q-94 16 -152.5 39.5t-89 64t-30.5 103.5q0 69 40.5 118t108.5 74t150 25q141 0 255 -52l-21 -146q-128 54 -234 54q-57 0 -86.5 -14t-29.5 -52q0 -22 12 -35t39.5 -22t81.5 -19q143 -25 212 -74.5t69 -144.5q0 -96 -74 -152.5z" />
    <glyph glyph-name="scedilla" unicode="&#x15f;" horiz-adv-x="542" 
d="M459 44q-57 -45 -151 -54l-7 -23q33 -6 52.5 -24.5t19.5 -44.5q0 -36 -34.5 -56.5t-95.5 -20.5q-40 0 -70 6l15 70q20 -5 38 -5q29 0 29 16q0 24 -53 20l17 61q-107 7 -195 49l24 135q53 -26 111.5 -39.5t114.5 -13.5q39 0 62 9.5t23 34.5q0 21 -23.5 32.5t-87.5 22.5
q-81 13 -128 34t-68 53.5t-21 80.5q1 88 70 133t173 45q105 0 211 -40l-21 -135q-42 20 -95.5 32t-104.5 12q-37 0 -55 -8.5t-19 -28.5q0 -18 21 -28.5t82 -21.5q123 -23 173.5 -64.5t50.5 -113.5q-1 -80 -58 -125z" />
    <glyph glyph-name="Scaron" unicode="&#x160;" horiz-adv-x="669" 
d="M170.5 2.5q-75.5 15.5 -134.5 46.5l14 146q54 -28 134.5 -45.5t144.5 -17.5q62 0 96.5 14.5t34.5 53.5q0 28 -15 43.5t-43 24.5t-85 20q-94 16 -152.5 39.5t-89 64t-30.5 103.5q0 69 40.5 118t108.5 74t150 25q141 0 255 -52l-21 -146q-128 54 -234 54q-57 0 -86.5 -14
t-29.5 -52q0 -22 12 -35t39.5 -22t81.5 -19q143 -25 212 -74.5t69 -144.5q0 -71 -41.5 -120.5t-112.5 -74.5t-159 -25q-83 0 -158.5 15.5zM339 804l48 76l132 -6l-93 -130h-173l-93 130l131 6z" />
    <glyph glyph-name="scaron" unicode="&#x161;" horiz-adv-x="542" 
d="M135.5 0.5q-57.5 12.5 -111.5 37.5l24 135q53 -26 111.5 -39.5t114.5 -13.5q39 0 62 9.5t23 34.5q0 21 -23.5 32.5t-87.5 22.5q-81 13 -128 34t-68 53.5t-21 80.5q1 88 70 133t173 45q105 0 211 -40l-21 -135q-42 20 -95.5 32t-104.5 12q-37 0 -55 -8.5t-19 -28.5
q0 -18 21 -28.5t82 -21.5q123 -23 173.5 -64.5t50.5 -113.5q-1 -89 -71.5 -135t-181.5 -46q-71 0 -128.5 12.5zM268 665l46 85l127 -8l-89 -145h-168l-89 145l127 8z" />
    <glyph glyph-name="uni0162" unicode="&#x162;" horiz-adv-x="663" 
d="M417 0h-43l-10 -33q33 -6 52.5 -24.5t19.5 -44.5q0 -36 -34.5 -56.5t-95.5 -20.5q-40 0 -70 6l15 70q20 -5 38 -5q29 0 29 16q0 24 -53 20l20 72h-41v553h-223v147h621v-147h-225v-553z" />
    <glyph glyph-name="uni0163" unicode="&#x163;" horiz-adv-x="486" 
d="M299 -34q33 -6 52.5 -24.5t19.5 -44.5q0 -36 -34.5 -56.5t-95.5 -20.5q-40 0 -70 6l15 70q20 -5 38 -5q29 0 29 16q0 24 -53 20l20 72q-57 18 -87.5 64.5t-30.5 117.5v236h-72v74l172 183h65v-121h169v-136h-169v-213q0 -35 17.5 -54t48.5 -19q45 0 91 20l30 -125
q-32 -18 -71.5 -27.5t-76.5 -10.5z" />
    <glyph glyph-name="Tcaron" unicode="&#x164;" horiz-adv-x="663" 
d="M21 700h621v-147h-225v-553h-173v553h-223v147zM332 804l48 76l132 -6l-93 -130h-173l-93 130l131 6z" />
    <glyph glyph-name="tcaron" unicode="&#x165;" horiz-adv-x="486" 
d="M153.5 37.5q-51.5 49.5 -51.5 143.5v236h-72v74l172 183h65v-121h169v-136h-169v-213q0 -35 17.5 -54t48.5 -19q45 0 91 20l30 -125q-34 -19 -75 -28.5t-79 -9.5q-95 0 -146.5 49.5zM340 592v183h123l-35 -183h-88z" />
    <glyph glyph-name="Tbar" unicode="&#x166;" horiz-adv-x="663" 
d="M642 700v-147h-225v-154h119v-92h-119v-307h-173v307h-114v92h114v154h-223v147h621z" />
    <glyph glyph-name="tbar" unicode="&#x167;" horiz-adv-x="486" 
d="M454 26q-34 -19 -75 -28.5t-79 -9.5q-95 0 -146.5 49.5t-51.5 143.5v81h-81v80h81v75h-72v74l172 183h65v-121h169v-136h-169v-75h118v-80h-118v-58q0 -35 17.5 -54t48.5 -19q45 0 91 20z" />
    <glyph glyph-name="Utilde" unicode="&#x168;" horiz-adv-x="765" 
d="M211 25.5q-73 37.5 -112.5 107.5t-39.5 165v402h173v-402q0 -80 39.5 -122.5t110.5 -42.5q73 0 113 42.5t40 122.5v402h171v-402q0 -95 -39.5 -165t-112.5 -107.5t-172 -37.5q-98 0 -171 37.5zM204 752q0 53 27.5 84.5t72.5 31.5q21 0 40 -5t43 -14q35 -13 50 -13
q19 0 31 11.5t12 30.5l75 -18q0 -53 -28 -84.5t-73 -31.5q-21 0 -38.5 5t-42.5 14q-35 13 -52 13q-19 0 -30.5 -11.5t-11.5 -30.5z" />
    <glyph glyph-name="utilde" unicode="&#x169;" horiz-adv-x="684" 
d="M455 553h165v-553h-165v74q-30 -40 -75.5 -63t-106.5 -23q-101 0 -159.5 61t-58.5 169v335h165v-304q0 -114 105 -114q45 0 79.5 27t50.5 71v320zM162 613q0 53 27.5 84.5t72.5 31.5q21 0 40 -5t43 -14q35 -13 50 -13q19 0 31 11.5t12 30.5l75 -18q0 -53 -28 -84.5
t-73 -31.5q-21 0 -38.5 5t-42.5 14q-35 13 -52 13q-19 0 -30.5 -11.5t-11.5 -30.5z" />
    <glyph glyph-name="Umacron" unicode="&#x16a;" horiz-adv-x="765" 
d="M211 25.5q-73 37.5 -112.5 107.5t-39.5 165v402h173v-402q0 -80 39.5 -122.5t110.5 -42.5q73 0 113 42.5t40 122.5v402h171v-402q0 -95 -39.5 -165t-112.5 -107.5t-172 -37.5q-98 0 -171 37.5zM556 759h-347v102h347v-102z" />
    <glyph glyph-name="umacron" unicode="&#x16b;" horiz-adv-x="684" 
d="M455 553h165v-553h-165v74q-30 -40 -75.5 -63t-106.5 -23q-101 0 -159.5 61t-58.5 169v335h165v-304q0 -114 105 -114q45 0 79.5 27t50.5 71v320zM510 616h-347v102h347v-102z" />
    <glyph glyph-name="Ubreve" unicode="&#x16c;" horiz-adv-x="765" 
d="M211 25.5q-73 37.5 -112.5 107.5t-39.5 165v402h173v-402q0 -80 39.5 -122.5t110.5 -42.5q73 0 113 42.5t40 122.5v402h171v-402q0 -95 -39.5 -165t-112.5 -107.5t-172 -37.5q-98 0 -171 37.5zM551 881q0 -68 -43.5 -107t-124.5 -39q-80 0 -123.5 39t-43.5 107h120
q0 -28 11.5 -41.5t35.5 -13.5q25 0 36.5 13.5t11.5 41.5h120z" />
    <glyph glyph-name="ubreve" unicode="&#x16d;" horiz-adv-x="684" 
d="M455 553h165v-553h-165v74q-30 -40 -75.5 -63t-106.5 -23q-101 0 -159.5 61t-58.5 169v335h165v-304q0 -114 105 -114q45 0 79.5 27t50.5 71v320zM504 742q0 -68 -43.5 -107t-124.5 -39q-80 0 -123.5 39t-43.5 107h120q0 -28 11.5 -41.5t35.5 -13.5q25 0 36.5 13.5
t11.5 41.5h120z" />
    <glyph glyph-name="Uring" unicode="&#x16e;" horiz-adv-x="765" 
d="M211 25.5q-73 37.5 -112.5 107.5t-39.5 165v402h173v-402q0 -80 39.5 -122.5t110.5 -42.5q73 0 113 42.5t40 122.5v402h171v-402q0 -95 -39.5 -165t-112.5 -107.5t-172 -37.5q-98 0 -171 37.5zM287 752q-38 35 -38 88q0 54 38 89t97 35t97.5 -35t38.5 -89
q0 -53 -38.5 -88t-97.5 -35t-97 35zM417.5 808.5q13.5 12.5 13.5 31.5q0 20 -13.5 33t-33.5 13t-33.5 -13t-13.5 -33q0 -19 13.5 -31.5t33.5 -12.5t33.5 12.5z" />
    <glyph glyph-name="uring" unicode="&#x16f;" horiz-adv-x="684" 
d="M455 553h165v-553h-165v74q-30 -40 -75.5 -63t-106.5 -23q-101 0 -159.5 61t-58.5 169v335h165v-304q0 -114 105 -114q45 0 79.5 27t50.5 71v320zM239 619q-38 35 -38 88q0 54 38 89t97 35t97.5 -35t38.5 -89q0 -53 -38.5 -88t-97.5 -35t-97 35zM369.5 675.5
q13.5 12.5 13.5 31.5q0 20 -13.5 33t-33.5 13t-33.5 -13t-13.5 -33q0 -19 13.5 -31.5t33.5 -12.5t33.5 12.5z" />
    <glyph glyph-name="Uhungarumlaut" unicode="&#x170;" horiz-adv-x="765" 
d="M211 25.5q-73 37.5 -112.5 107.5t-39.5 165v402h173v-402q0 -80 39.5 -122.5t110.5 -42.5q73 0 113 42.5t40 122.5v402h171v-402q0 -95 -39.5 -165t-112.5 -107.5t-172 -37.5q-98 0 -171 37.5zM425 850l-90 -107l-124 7l69 130zM610 850l-90 -107l-124 7l69 130z" />
    <glyph glyph-name="uhungarumlaut" unicode="&#x171;" horiz-adv-x="684" 
d="M455 553h165v-553h-165v74q-30 -40 -75.5 -63t-106.5 -23q-101 0 -159.5 61t-58.5 169v335h165v-304q0 -114 105 -114q45 0 79.5 27t50.5 71v320zM372 731l-98 -125l-111 11l56 150zM577 731l-97 -125l-111 11l56 150z" />
    <glyph glyph-name="Uogonek" unicode="&#x172;" horiz-adv-x="765" 
d="M535 700h171v-402q0 -92 -36.5 -160t-104.5 -106q-47 -34 -47 -64q0 -36 49 -36q19 0 38 4l7 -93q-49 -11 -97 -11q-69 0 -105.5 27t-36.5 70q0 31 20 59h-11q-98 0 -171 37.5t-112.5 107.5t-39.5 165v402h173v-402q0 -80 39.5 -122.5t110.5 -42.5q73 0 113 42.5
t40 122.5v402z" />
    <glyph glyph-name="uogonek" unicode="&#x173;" horiz-adv-x="684" 
d="M653 -198q-50 -11 -97 -11q-69 0 -105.5 27t-36.5 70q0 33 22 62t57 50h-38v74q-30 -40 -75.5 -63t-106.5 -23q-101 0 -159.5 61t-58.5 169v335h165v-304q0 -114 105 -114q45 0 79.5 27t50.5 71v320h165v-553h1q-30 -18 -46 -37t-16 -36q0 -36 49 -36q19 0 38 4z" />
    <glyph glyph-name="Wcircumflex" unicode="&#x174;" horiz-adv-x="1116" 
d="M778 212l148 488h181l-226 -700h-180l-142 428l-143 -428h-180l-227 700h182l148 -488l142 488h155zM646 877l93 -132l-133 -6l-47 77l-48 -77l-133 6l93 132h175z" />
    <glyph glyph-name="wcircumflex" unicode="&#x175;" horiz-adv-x="947" 
d="M648 191l108 362h174l-188 -553h-169l-99 336l-100 -336h-168l-189 553h174l108 -362l103 362h142zM557 747l89 -146l-127 -7l-46 85l-46 -85l-127 7l89 146h168z" />
    <glyph glyph-name="Ycircumflex" unicode="&#x176;" horiz-adv-x="743" 
d="M552 700h187l-281 -461v-239h-173v242l-281 458h187l181 -318zM459 877l93 -132l-133 -6l-47 77l-48 -77l-133 6l93 132h175z" />
    <glyph glyph-name="ycircumflex" unicode="&#x177;" horiz-adv-x="659" 
d="M329 177l140 376h175l-233 -553l-71 -171h-170l77 175l-232 549h174zM414 747l89 -146l-127 -7l-46 85l-46 -85l-127 7l89 146h168z" />
    <glyph glyph-name="Ydieresis" unicode="&#x178;" horiz-adv-x="743" 
d="M552 700h187l-281 -461v-239h-173v242l-281 458h187l181 -318zM353 741h-128v125h128v-125zM520 741h-127v125h127v-125z" />
    <glyph glyph-name="Zacute" unicode="&#x179;" horiz-adv-x="688" 
d="M659 0h-630v111l386 442h-375v147h613v-110l-387 -443h393v-147zM510 850l-107 -107l-129 7l88 130z" />
    <glyph glyph-name="zacute" unicode="&#x17a;" horiz-adv-x="575" 
d="M543 0h-510v99l284 316h-276v138h497v-99l-286 -315h291v-139zM443 731l-117 -125l-115 11l77 150z" />
    <glyph glyph-name="Zdotaccent" unicode="&#x17b;" horiz-adv-x="688" 
d="M659 0h-630v111l386 442h-375v147h613v-110l-387 -443h393v-147zM430 748h-171v125h171v-125z" />
    <glyph glyph-name="zdotaccent" unicode="&#x17c;" horiz-adv-x="575" 
d="M543 0h-510v99l284 316h-276v138h497v-99l-286 -315h291v-139zM370 605h-171v129h171v-129z" />
    <glyph glyph-name="Zcaron" unicode="&#x17d;" horiz-adv-x="688" 
d="M659 0h-630v111l386 442h-375v147h613v-110l-387 -443h393v-147zM345 804l48 76l132 -6l-93 -130h-173l-93 130l131 6z" />
    <glyph glyph-name="zcaron" unicode="&#x17e;" horiz-adv-x="575" 
d="M543 0h-510v99l284 316h-276v138h497v-99l-286 -315h291v-139zM284 665l46 85l127 -8l-89 -145h-168l-89 145l127 8z" />
    <glyph glyph-name="uni018F" unicode="&#x18f;" horiz-adv-x="836" 
d="M594.5 664.5q90.5 -46.5 141.5 -129t51 -186.5t-49 -186t-137 -128.5t-200 -46.5q-102 0 -182 43t-125 120t-45 174q0 31 8 61h549q-13 86 -70 134t-143 48q-56 0 -104.5 -21t-84.5 -59l-112 100q118 123 298 123q114 0 204.5 -46.5zM529 172.5q54 39.5 72 107.5h-374
q13 -69 60 -108t114 -39q74 0 128 39.5z" />
    <glyph glyph-name="florin" unicode="&#x192;" horiz-adv-x="730" 
d="M514.5 635.5q-22.5 -24.5 -35.5 -82.5h135v-123h-158l-32 -179q-46 -262 -248 -262q-87 0 -139 25l43 112q29 -10 44.5 -13.5t39.5 -3.5q37 0 60 34t38 120l29 167h-110v123h132q26 122 82 175t158 53q85 0 139 -25l-42 -113q-26 10 -40.5 13.5t-31.5 3.5
q-41 0 -63.5 -24.5z" />
    <glyph glyph-name="uni019D" unicode="&#x19d;" horiz-adv-x="832" 
d="M584 700h172v-700h-154l-354 434v-209q1 -12 1 -42v-173q0 -92 -56.5 -141t-161.5 -49q-22 0 -38 3v139h12q35 0 53 16.5t18 55.5v666h159l349 -427v427z" />
    <glyph glyph-name="Ohorn" unicode="&#x1a0;" horiz-adv-x="855" 
d="M783 482.5q23 -61.5 23 -132.5q0 -104 -49 -186.5t-135 -129t-195 -46.5q-108 0 -194.5 46.5t-135 129t-48.5 186.5t49 186.5t135 129t195 46.5q93 0 173 -36q34 5 34 47q0 20 -9 51l142 8q14 -40 14 -72q0 -40 -17.5 -70.5t-47.5 -47.5q43 -48 66 -109.5zM531 164.5
q45 26.5 70.5 74.5t25.5 111t-25.5 111t-70.5 74.5t-103 26.5t-103.5 -26.5t-71 -74.5t-25.5 -111t25.5 -111t71 -74.5t103.5 -26.5t103 26.5z" />
    <glyph glyph-name="ohorn" unicode="&#x1a1;" 
d="M648 648q14 -36 14 -73q0 -41 -18.5 -72t-48.5 -47q61 -75 61 -178q0 -83 -40 -149t-110.5 -103.5t-159.5 -37.5q-88 0 -158.5 37.5t-110.5 103.5t-40 148t40 148t111 103t159 37q70 0 128 -23q40 2 40 47q0 20 -9 51zM449 171q40 41 40 106q0 66 -40 106.5t-103 40.5
q-62 0 -102 -40t-40 -105q0 -67 40 -108t103 -41q62 0 102 41z" />
    <glyph glyph-name="Uhorn" unicode="&#x1af;" horiz-adv-x="765" 
d="M794 806q14 -36 14 -73q0 -52 -28.5 -86.5t-73.5 -45.5v-303q0 -95 -39.5 -165t-112.5 -107.5t-172 -37.5q-98 0 -171 37.5t-112.5 107.5t-39.5 165v402h173v-402q0 -80 39.5 -122.5t110.5 -42.5q73 0 113 42.5t40 122.5v402h88q38 2 38 47q0 20 -9 51z" />
    <glyph glyph-name="uhorn" unicode="&#x1b0;" horiz-adv-x="684" 
d="M714 659q14 -36 14 -73q0 -53 -30 -88.5t-78 -44.5v-453h-165v74q-30 -40 -75.5 -63t-106.5 -23q-101 0 -159.5 61t-58.5 169v335h165v-304q0 -114 105 -114q45 0 79.5 27t50.5 71v320h88q38 2 38 47q0 20 -9 51z" />
    <glyph glyph-name="uni01CD" unicode="&#x1cd;" horiz-adv-x="805" 
d="M796 0h-181l-46 115h-336l-46 -115h-178l290 700h206zM402 533l-115 -286h229zM398 804l48 76l132 -6l-93 -130h-173l-93 130l131 6z" />
    <glyph glyph-name="uni01CE" unicode="&#x1ce;" horiz-adv-x="621" 
d="M498 501.5q68 -63.5 68 -178.5v-323h-165v70q-25 -36 -72 -59t-110 -23q-57 0 -101 22t-68 62t-24 92q0 80 55 127t165 47q79 0 154 -7v4q0 94 -128 94q-93 0 -170 -30l-16 136q98 30 204 30q140 0 208 -63.5zM364 147.5q32 29.5 36 78.5v14q-48 6 -107 6
q-109 0 -109 -67q0 -30 24 -45.5t67 -15.5q57 0 89 29.5zM293 666l46 85l127 -8l-89 -145h-168l-89 145l127 8z" />
    <glyph glyph-name="uni01CF" unicode="&#x1cf;" horiz-adv-x="324" 
d="M248 0h-172v700h172v-700zM163 804l48 76l132 -6l-93 -130h-173l-93 130l131 6z" />
    <glyph glyph-name="uni01D0" unicode="&#x1d0;" horiz-adv-x="291" 
d="M228 0h-165v553h165v-553zM145 665l46 85l127 -8l-89 -145h-168l-89 145l127 8z" />
    <glyph glyph-name="uni01D1" unicode="&#x1d1;" horiz-adv-x="855" 
d="M232.5 34.5q-86.5 46.5 -135 129t-48.5 186.5t49 186.5t135 129t195 46.5q108 0 194.5 -46.5t135 -129t48.5 -186.5t-49 -186.5t-135 -129t-195 -46.5q-108 0 -194.5 46.5zM531 164.5q45 26.5 70.5 74.5t25.5 111t-25.5 111t-70.5 74.5t-103 26.5t-103.5 -26.5t-71 -74.5
t-25.5 -111t25.5 -111t71 -74.5t103.5 -26.5t103 26.5zM429 804l48 76l132 -6l-93 -130h-173l-93 130l131 6z" />
    <glyph glyph-name="uni01D2" unicode="&#x1d2;" 
d="M187.5 25.5q-70.5 37.5 -110.5 103.5t-40 148t40 148t111 103t159 37t158.5 -37t110.5 -102.5t40 -147.5q0 -83 -40 -149t-110.5 -103.5t-159.5 -37.5q-88 0 -158.5 37.5zM449 171q40 41 40 106q0 66 -40 106.5t-103 40.5q-62 0 -102 -40t-40 -105q0 -67 40 -108t103 -41
q62 0 102 41zM346 665l46 85l127 -8l-89 -145h-168l-89 145l127 8z" />
    <glyph glyph-name="uni01D3" unicode="&#x1d3;" horiz-adv-x="765" 
d="M211 25.5q-73 37.5 -112.5 107.5t-39.5 165v402h173v-402q0 -80 39.5 -122.5t110.5 -42.5q73 0 113 42.5t40 122.5v402h171v-402q0 -95 -39.5 -165t-112.5 -107.5t-172 -37.5q-98 0 -171 37.5zM384 804l48 76l132 -6l-93 -130h-173l-93 130l131 6z" />
    <glyph glyph-name="uni01D4" unicode="&#x1d4;" horiz-adv-x="684" 
d="M455 553h165v-553h-165v74q-30 -40 -75.5 -63t-106.5 -23q-101 0 -159.5 61t-58.5 169v335h165v-304q0 -114 105 -114q45 0 79.5 27t50.5 71v320zM336 665l46 85l127 -8l-89 -145h-168l-89 145l127 8z" />
    <glyph glyph-name="uni01D5" unicode="&#x1d5;" horiz-adv-x="765" 
d="M211 25.5q-73 37.5 -112.5 107.5t-39.5 165v402h173v-402q0 -80 39.5 -122.5t110.5 -42.5q73 0 113 42.5t40 122.5v402h171v-402q0 -95 -39.5 -165t-112.5 -107.5t-172 -37.5q-98 0 -171 37.5zM365 741h-128v125h128v-125zM532 741h-127v125h127v-125zM556 911h-347v102
h347v-102z" />
    <glyph glyph-name="uni01D6" unicode="&#x1d6;" horiz-adv-x="684" 
d="M455 553h165v-553h-165v74q-30 -40 -75.5 -63t-106.5 -23q-101 0 -159.5 61t-58.5 169v335h165v-304q0 -114 105 -114q45 0 79.5 27t50.5 71v320zM310 605h-108v129h108v-129zM472 605h-108v129h108v-129zM510 785h-347v102h347v-102z" />
    <glyph glyph-name="uni01D7" unicode="&#x1d7;" horiz-adv-x="765" 
d="M211 25.5q-73 37.5 -112.5 107.5t-39.5 165v402h173v-402q0 -80 39.5 -122.5t110.5 -42.5q73 0 113 42.5t40 122.5v402h171v-402q0 -95 -39.5 -165t-112.5 -107.5t-172 -37.5q-98 0 -171 37.5zM365 741h-128v125h128v-125zM532 741h-127v125h127v-125zM549 1002
l-107 -107l-129 7l88 130z" />
    <glyph glyph-name="uni01D8" unicode="&#x1d8;" horiz-adv-x="684" 
d="M455 553h165v-553h-165v74q-30 -40 -75.5 -63t-106.5 -23q-101 0 -159.5 61t-58.5 169v335h165v-304q0 -114 105 -114q45 0 79.5 27t50.5 71v320zM310 605h-108v129h108v-129zM472 605h-108v129h108v-129zM496 900l-117 -125l-115 11l77 150z" />
    <glyph glyph-name="uni01D9" unicode="&#x1d9;" horiz-adv-x="765" 
d="M211 25.5q-73 37.5 -112.5 107.5t-39.5 165v402h173v-402q0 -80 39.5 -122.5t110.5 -42.5q73 0 113 42.5t40 122.5v402h171v-402q0 -95 -39.5 -165t-112.5 -107.5t-172 -37.5q-98 0 -171 37.5zM365 741h-128v125h128v-125zM532 741h-127v125h127v-125zM384 956l48 76
l132 -6l-93 -130h-173l-93 130l131 6z" />
    <glyph glyph-name="uni01DA" unicode="&#x1da;" horiz-adv-x="684" 
d="M455 553h165v-553h-165v74q-30 -40 -75.5 -63t-106.5 -23q-101 0 -159.5 61t-58.5 169v335h165v-304q0 -114 105 -114q45 0 79.5 27t50.5 71v320zM310 605h-108v129h108v-129zM472 605h-108v129h108v-129zM336 834l46 85l127 -8l-89 -145h-168l-89 145l127 8z" />
    <glyph glyph-name="uni01DB" unicode="&#x1db;" horiz-adv-x="765" 
d="M211 25.5q-73 37.5 -112.5 107.5t-39.5 165v402h173v-402q0 -80 39.5 -122.5t110.5 -42.5q73 0 113 42.5t40 122.5v402h171v-402q0 -95 -39.5 -165t-112.5 -107.5t-172 -37.5q-98 0 -171 37.5zM365 741h-128v125h128v-125zM532 741h-127v125h127v-125zM453 902l-129 -7
l-107 107l148 30z" />
    <glyph glyph-name="Gcaron" unicode="&#x1e6;" horiz-adv-x="778" 
d="M497 381h233l-1 -301q-64 -42 -142 -67t-157 -25q-109 0 -196 46.5t-136 129t-49 185.5q0 111 53.5 193t142.5 126t194 44q141 0 263 -74l-67 -134q-94 59 -194 59q-61 0 -110 -25t-77.5 -73.5t-28.5 -115.5q0 -98 58 -155.5t154 -57.5q46 0 73 7.5t56 22.5v88h-69v127z
M442 804l48 76l132 -6l-93 -130h-173l-93 130l131 6z" />
    <glyph glyph-name="gcaron" unicode="&#x1e7;" horiz-adv-x="647" 
d="M376 149q126 1 185 -39t59 -113q0 -84 -81 -132t-235 -48q-127 0 -193.5 36.5t-66.5 105.5q0 30 18.5 55t48.5 41q-24 15 -36.5 37.5t-12.5 48.5q0 33 18 59t47 42q-65 48 -65 137q0 87 68 137t187 50q72 0 116 -20l148 45l31 -111l-75 -11q18 -17 28 -40.5t10 -49.5
q0 -88 -68 -139t-188 -51q-52 0 -94 9q-11 -11 -11 -26q0 -14 11 -18.5t33 -4.5h118zM247.5 429q-24.5 -17 -24.5 -49q0 -35 24 -53.5t71 -18.5q46 0 70.5 18t24.5 53q0 33 -24 50t-71 17q-46 0 -70.5 -17zM425 -46.5q34 11.5 34 40.5q0 23 -26 30.5t-86 7.5h-122
q-24 -22 -24 -44q0 -27 28.5 -36.5t86.5 -9.5q75 0 109 11.5zM321 670l46 85l127 -8l-89 -145h-168l-89 145l127 8z" />
    <glyph glyph-name="uni01EA" unicode="&#x1ea;" horiz-adv-x="855" 
d="M562 -37q0 -36 49 -36q19 0 38 4l7 -93q-49 -11 -97 -11q-69 0 -105.5 27t-36.5 70q0 33 23 64h-13q-108 0 -194.5 46.5t-135 129t-48.5 186.5t49 186.5t135 129t195 46.5q108 0 194.5 -46.5t135 -129t48.5 -186.5t-49.5 -187t-136.5 -129q-58 -38 -58 -71zM253.5 239
q25.5 -48 71 -74.5t103.5 -26.5t103 26.5t70.5 74.5t25.5 111t-25.5 111t-70.5 74.5t-103 26.5t-103.5 -26.5t-71 -74.5t-25.5 -111t25.5 -111z" />
    <glyph glyph-name="uni01EB" unicode="&#x1eb;" 
d="M621 138q-35 -63 -97 -102q-30 -18 -46 -37t-16 -36q0 -36 49 -36q19 0 38 4l7 -93q-50 -11 -97 -11q-69 0 -105.5 27t-36.5 70q0 33 23 64q-87 1 -156 39t-108 103.5t-39 146.5q0 82 40 148t111 103t159 37t158.5 -37t110.5 -102.5t40 -147.5q0 -77 -35 -140zM244 171
q40 -41 103 -41q62 0 102 41t40 106q0 66 -40 106.5t-103 40.5q-62 0 -102 -40t-40 -105q0 -67 40 -108z" />
    <glyph glyph-name="Aringacute" unicode="&#x1fa;" horiz-adv-x="805" 
d="M796 0h-181l-46 115h-336l-46 -115h-178l290 700h206zM402 533l-115 -286h229zM301 752q-38 35 -38 88q0 54 38 89t97 35t97.5 -35t38.5 -89q0 -53 -38.5 -88t-97.5 -35t-97 35zM431.5 808.5q13.5 12.5 13.5 31.5q0 20 -13.5 33t-33.5 13t-33.5 -13t-13.5 -33
q0 -19 13.5 -31.5t33.5 -12.5t33.5 12.5zM567 1116l-107 -107l-129 7l88 130z" />
    <glyph glyph-name="aringacute" unicode="&#x1fb;" horiz-adv-x="621" 
d="M498 501.5q68 -63.5 68 -178.5v-323h-165v70q-25 -36 -72 -59t-110 -23q-57 0 -101 22t-68 62t-24 92q0 80 55 127t165 47q79 0 154 -7v4q0 94 -128 94q-93 0 -170 -30l-16 136q98 30 204 30q140 0 208 -63.5zM364 147.5q32 29.5 36 78.5v14q-48 6 -107 6
q-109 0 -109 -67q0 -30 24 -45.5t67 -15.5q57 0 89 29.5zM196 620q-38 35 -38 88q0 54 38 89t97 35t97.5 -35t38.5 -89q0 -53 -38.5 -88t-97.5 -35t-97 35zM326.5 676.5q13.5 12.5 13.5 31.5q0 20 -13.5 33t-33.5 13t-33.5 -13t-13.5 -33q0 -19 13.5 -31.5t33.5 -12.5
t33.5 12.5zM452 990l-117 -125l-115 11l77 150z" />
    <glyph glyph-name="AEacute" unicode="&#x1fc;" horiz-adv-x="1112" 
d="M659 291v-149h411v-142h-580v141h-226l-77 -141h-178l373 700h678v-142h-401v-132h355v-135h-355zM489 558l-157 -287h158v287h-1zM864 850l-107 -107l-129 7l88 130z" />
    <glyph glyph-name="aeacute" unicode="&#x1fd;" horiz-adv-x="1011" 
d="M565 228q12 -53 52.5 -79.5t103.5 -26.5q38 0 79.5 11t73.5 32l38 -121q-46 -30 -95.5 -43t-109.5 -13q-73 0 -134.5 26t-103.5 73q-41 -47 -102 -73t-132 -26q-58 0 -106 21.5t-75.5 61t-27.5 93.5q0 79 59 125.5t166 46.5q86 0 149 -6v7q-1 92 -128 92q-41 0 -86 -7.5
t-84 -22.5l-16 136q61 15 105.5 22.5t98.5 7.5q133 0 197 -77q40 37 94.5 57t118.5 20q78 0 140.5 -31.5t98 -87t35.5 -124.5q0 -47 -18 -94h-391zM609 404.5q-33 -27.5 -44 -79.5l247 1q-2 52 -33.5 79t-83.5 27q-53 0 -86 -27.5zM361.5 147q37.5 32 39.5 84v10
q-50 5 -109 5q-51 0 -79.5 -18t-28.5 -49q0 -29 23 -46.5t63 -17.5q54 0 91.5 32zM667 731l-117 -125l-115 11l77 150z" />
    <glyph glyph-name="oslashacute" unicode="&#x1ff;" 
d="M594 457q62 -76 62 -179q0 -83 -40 -149t-110.5 -103.5t-159.5 -37.5q-96 0 -174 46l-41 -41l-66 66l36 36q-64 76 -64 182q0 82 40 148t111 103t159 37q99 0 176 -47l46 47l66 -66zM217 212l197 197q-30 15 -68 15q-62 0 -102 -40t-40 -105q0 -36 13 -67zM449 171
q40 41 40 106q0 36 -12 64l-195 -197q30 -14 65 -14q62 0 102 41zM506 731l-117 -125l-115 11l77 150z" />
    <glyph glyph-name="uni0218" unicode="&#x218;" horiz-adv-x="669" 
d="M170.5 2.5q-75.5 15.5 -134.5 46.5l14 146q54 -28 134.5 -45.5t144.5 -17.5q62 0 96.5 14.5t34.5 53.5q0 28 -15 43.5t-43 24.5t-85 20q-94 16 -152.5 39.5t-89 64t-30.5 103.5q0 69 40.5 118t108.5 74t150 25q141 0 255 -52l-21 -146q-128 54 -234 54q-57 0 -86.5 -14
t-29.5 -52q0 -22 12 -35t39.5 -22t81.5 -19q143 -25 212 -74.5t69 -144.5q0 -71 -41.5 -120.5t-112.5 -74.5t-159 -25q-83 0 -158.5 15.5zM272 -191q29 11 41 27t11 38h-56v90h131q9 -36 9 -65q0 -102 -111 -139z" />
    <glyph glyph-name="uni0219" unicode="&#x219;" horiz-adv-x="542" 
d="M135.5 0.5q-57.5 12.5 -111.5 37.5l24 135q53 -26 111.5 -39.5t114.5 -13.5q39 0 62 9.5t23 34.5q0 21 -23.5 32.5t-87.5 22.5q-81 13 -128 34t-68 53.5t-21 80.5q1 88 70 133t173 45q105 0 211 -40l-21 -135q-42 20 -95.5 32t-104.5 12q-37 0 -55 -8.5t-19 -28.5
q0 -18 21 -28.5t82 -21.5q123 -23 173.5 -64.5t50.5 -113.5q-1 -89 -71.5 -135t-181.5 -46q-71 0 -128.5 12.5zM202 -191q29 11 41 27t11 38h-56v90h131q9 -36 9 -65q0 -102 -111 -139z" />
    <glyph glyph-name="uni021A" unicode="&#x21a;" horiz-adv-x="663" 
d="M21 700h621v-147h-225v-553h-173v553h-223v147zM266 -191q29 11 41 27t11 38h-56v90h131q9 -36 9 -65q0 -102 -111 -139z" />
    <glyph glyph-name="uni021B" unicode="&#x21b;" horiz-adv-x="486" 
d="M153.5 37.5q-51.5 49.5 -51.5 143.5v236h-72v74l172 183h65v-121h169v-136h-169v-213q0 -35 17.5 -54t48.5 -19q45 0 91 20l30 -125q-34 -19 -75 -28.5t-79 -9.5q-95 0 -146.5 49.5zM200 -192q29 11 41 27t11 38h-56v90h131q9 -36 9 -65q0 -102 -111 -139z" />
    <glyph glyph-name="uni0232" unicode="&#x232;" horiz-adv-x="743" 
d="M552 700h187l-281 -461v-239h-173v242l-281 458h187l181 -318zM545 759h-347v102h347v-102z" />
    <glyph glyph-name="uni0233" unicode="&#x233;" horiz-adv-x="659" 
d="M329 177l140 376h175l-233 -553l-71 -171h-170l77 175l-232 549h174zM503 616h-347v102h347v-102z" />
    <glyph glyph-name="uni0237" unicode="&#x237;" horiz-adv-x="302" 
d="M-39 -48h51q28 0 44.5 16.5t16.5 46.5v538h166v-538q0 -98 -58 -147.5t-148 -49.5q-40 0 -74 9z" />
    <glyph glyph-name="uni0259" unicode="&#x259;" horiz-adv-x="650" 
d="M461.5 528.5q70.5 -36.5 110.5 -102.5t40 -150q0 -82 -38 -148t-106.5 -103t-156.5 -37q-78 0 -140.5 31.5t-98 87t-35.5 124.5q0 47 18 94h391q-12 53 -52.5 79.5t-103.5 26.5q-38 0 -79.5 -11t-73.5 -32l-38 121q46 30 95.5 43t109.5 13q87 0 157.5 -36.5zM402 148.5
q33 27.5 44 79.5l-247 -1q2 -52 33.5 -79t83.5 -27q53 0 86 27.5z" />
    <glyph glyph-name="uni0272" unicode="&#x272;" horiz-adv-x="683" 
d="M569.5 504q58.5 -61 58.5 -169v-335h-165v304q0 114 -105 114q-45 0 -79.5 -27t-50.5 -71v-94q1 -13 1 -43v-173q0 -91 -54 -140.5t-154 -49.5q-21 0 -36 3v139h11q29 0 46 13t21 42v536h165v-74q30 40 76 63t106 23q101 0 159.5 -61z" />
    <glyph glyph-name="uni02B0" unicode="&#x2b0;" horiz-adv-x="379" 
d="M328 715.5q32 -33.5 32 -94.5v-187h-114v166q0 23 -12 37t-35 14q-24 0 -40.5 -18t-16.5 -45v-154h-113v405h113v-142q18 24 43 38t55 14q56 0 88 -33.5z" />
    <glyph glyph-name="circumflex" unicode="&#x2c6;" horiz-adv-x="444" 
d="M306 747l89 -146l-127 -7l-46 85l-46 -85l-127 7l89 146h168z" />
    <glyph glyph-name="caron" unicode="&#x2c7;" horiz-adv-x="444" 
d="M222 665l46 85l127 -8l-89 -145h-168l-89 145l127 8z" />
    <glyph glyph-name="breve" unicode="&#x2d8;" horiz-adv-x="433" 
d="M384 742q0 -68 -43.5 -107t-124.5 -39q-80 0 -123.5 39t-43.5 107h120q0 -28 11.5 -41.5t35.5 -13.5q25 0 36.5 13.5t11.5 41.5h120z" />
    <glyph glyph-name="dotaccent" unicode="&#x2d9;" horiz-adv-x="269" 
d="M220 605h-171v129h171v-129z" />
    <glyph glyph-name="ring" unicode="&#x2da;" horiz-adv-x="369" 
d="M87 619q-38 35 -38 88q0 54 38 89t97 35t97.5 -35t38.5 -89q0 -53 -38.5 -88t-97.5 -35t-97 35zM217.5 675.5q13.5 12.5 13.5 31.5q0 20 -13.5 33t-33.5 13t-33.5 -13t-13.5 -33q0 -19 13.5 -31.5t33.5 -12.5t33.5 12.5z" />
    <glyph glyph-name="ogonek" unicode="&#x2db;" horiz-adv-x="313" 
d="M244 0q-30 -18 -46 -37t-16 -36q0 -36 49 -36q19 0 38 4l7 -93q-50 -11 -97 -11q-69 0 -105.5 27t-36.5 70t36 79t86 53z" />
    <glyph glyph-name="tilde" unicode="&#x2dc;" horiz-adv-x="458" 
d="M50 613q0 53 27.5 84.5t72.5 31.5q21 0 40 -5t43 -14q35 -13 50 -13q19 0 31 11.5t12 30.5l75 -18q0 -53 -28 -84.5t-73 -31.5q-21 0 -38.5 5t-42.5 14q-35 13 -52 13q-19 0 -30.5 -11.5t-11.5 -30.5z" />
    <glyph glyph-name="hungarumlaut" unicode="&#x2dd;" horiz-adv-x="512" 
d="M258 731l-98 -125l-111 11l56 150zM463 731l-97 -125l-111 11l56 150z" />
    <glyph glyph-name="uni02E1" unicode="&#x2e1;" horiz-adv-x="165" 
d="M136 434h-107v415h107v-415z" />
    <glyph glyph-name="uni02E2" unicode="&#x2e2;" horiz-adv-x="329" 
d="M19 460l30 77q60 -26 121 -26q36 0 36 14q0 8 -10.5 12t-44.5 10q-68 12 -95.5 34.5t-27.5 62.5q0 49 36 75.5t102 26.5q35 0 72 -8.5t62 -22.5l-32 -76q-58 23 -105 23q-31 0 -31 -13q0 -8 10 -12.5t39 -9.5q69 -12 99.5 -34t30.5 -63q0 -48 -41.5 -75.5t-107.5 -27.5
q-80 0 -143 33z" />
    <glyph glyph-name="gravecomb" unicode="&#x300;" horiz-adv-x="0" 
d="M-50 617l-115 -11l-117 125l156 36z" />
    <glyph glyph-name="acutecomb" unicode="&#x301;" horiz-adv-x="0" 
d="M-50 731l-117 -125l-115 11l77 150z" />
    <glyph glyph-name="uni0302" unicode="&#x302;" horiz-adv-x="0" 
d="M-138 747l89 -146l-127 -7l-46 85l-46 -85l-127 7l89 146h168z" />
    <glyph glyph-name="tildecomb" unicode="&#x303;" horiz-adv-x="0" 
d="M-399 613q0 53 27.5 84.5t72.5 31.5q21 0 40 -5t43 -14q35 -13 50 -13q19 0 31 11.5t12 30.5l75 -18q0 -53 -28 -84.5t-73 -31.5q-21 0 -38.5 5t-42.5 14q-35 13 -52 13q-19 0 -30.5 -11.5t-11.5 -30.5z" />
    <glyph glyph-name="uni0304" unicode="&#x304;" horiz-adv-x="0" 
d="M-49 616h-347v102h347v-102z" />
    <glyph glyph-name="uni0306" unicode="&#x306;" horiz-adv-x="0" 
d="M-49 742q0 -68 -43.5 -107t-124.5 -39q-80 0 -123.5 39t-43.5 107h120q0 -28 11.5 -41.5t35.5 -13.5q25 0 36.5 13.5t11.5 41.5h120z" />
    <glyph glyph-name="uni0307" unicode="&#x307;" horiz-adv-x="0" 
d="M-49 605h-171v129h171v-129z" />
    <glyph glyph-name="uni0308" unicode="&#x308;" horiz-adv-x="0" 
d="M-218 605h-108v129h108v-129zM-56 605h-108v129h108v-129z" />
    <glyph glyph-name="hookabovecomb" unicode="&#x309;" horiz-adv-x="0" 
d="M-185 630q13 13 20 24t7 25q0 11 -7 18.5t-19 7.5t-27 -9l-13 76q47 24 88 24q40 0 63.5 -21.5t23.5 -51.5q0 -38 -21.5 -69.5t-47.5 -49.5z" />
    <glyph glyph-name="uni030A" unicode="&#x30a;" horiz-adv-x="0" 
d="M-282 619q-38 35 -38 88q0 54 38 89t97 35t97.5 -35t38.5 -89q0 -53 -38.5 -88t-97.5 -35t-97 35zM-151.5 675.5q13.5 12.5 13.5 31.5q0 20 -13.5 33t-33.5 13t-33.5 -13t-13.5 -33q0 -19 13.5 -31.5t33.5 -12.5t33.5 12.5z" />
    <glyph glyph-name="uni030B" unicode="&#x30b;" horiz-adv-x="0" 
d="M-254 731l-98 -125l-111 11l56 150zM-49 731l-97 -125l-111 11l56 150z" />
    <glyph glyph-name="uni030C" unicode="&#x30c;" horiz-adv-x="0" 
d="M-207 665l46 85l127 -8l-89 -145h-168l-89 145l127 8z" />
    <glyph glyph-name="uni0312" unicode="&#x312;" horiz-adv-x="0" 
d="M-54 747q-29 -10 -40.5 -26t-10.5 -38h55v-90h-131q-9 36 -9 63q0 56 30 89.5t82 50.5z" />
    <glyph glyph-name="uni031B" unicode="&#x31b;" horiz-adv-x="0" 
d="M-254 611q46 -2 46 47q0 20 -9 51l142 8q14 -36 14 -73q0 -61 -40 -98.5t-97 -37.5q-45 0 -85 23z" />
    <glyph glyph-name="dotbelowcomb" unicode="&#x323;" horiz-adv-x="0" 
d="M-220 -173v130h171v-130h-171z" />
    <glyph glyph-name="uni0324" unicode="&#x324;" horiz-adv-x="0" 
d="M-218 -187h-108v129h108v-129zM-56 -187h-108v129h108v-129z" />
    <glyph glyph-name="uni0326" unicode="&#x326;" horiz-adv-x="0" 
d="M-183 -191q29 11 41 27t11 38h-56v90h131q9 -36 9 -65q0 -102 -111 -139z" />
    <glyph glyph-name="uni0327" unicode="&#x327;" horiz-adv-x="0" 
d="M-116 -33q33 -6 52.5 -24.5t19.5 -44.5q0 -36 -34.5 -56.5t-95.5 -20.5q-40 0 -70 6l15 70q20 -5 38 -5q29 0 29 16q0 24 -53 20l22 80h89z" />
    <glyph glyph-name="uni0328" unicode="&#x328;" horiz-adv-x="0" 
d="M-69 0q-30 -18 -46 -37t-16 -36q0 -36 49 -36q19 0 38 4l7 -93q-50 -11 -97 -11q-69 0 -105.5 27t-36.5 70t36 79t86 53z" />
    <glyph glyph-name="uni032E" unicode="&#x32e;" horiz-adv-x="0" 
d="M-46 -31q0 -52 -37 -81.5t-104 -29.5q-68 0 -104.5 29.5t-36.5 81.5l101 1q0 -22 9.5 -32t30.5 -10q40 0 40 42z" />
    <glyph glyph-name="uni0331" unicode="&#x331;" horiz-adv-x="0" 
d="M-49 -153h-347v102h347v-102z" />
    <glyph glyph-name="uni0335" unicode="&#x335;" horiz-adv-x="0" 
d="M-401 291v80h364v-80h-364z" />
    <glyph glyph-name="uni0336" unicode="&#x336;" horiz-adv-x="0" 
d="M-648 395v91h618v-91h-618z" />
    <glyph glyph-name="uni0337" unicode="&#x337;" horiz-adv-x="0" 
d="M-335 254l-36 71l312 155l35 -71z" />
    <glyph glyph-name="uni0338" unicode="&#x338;" horiz-adv-x="0" 
d="M-548 -8l-66 66l504 506l66 -66z" />
    <glyph glyph-name="tonos" unicode="&#x384;" horiz-adv-x="267" 
d="M243 761l-53 -154h-94l11 154h136z" />
    <glyph glyph-name="dieresistonos" unicode="&#x385;" horiz-adv-x="476" 
d="M303 795l-47 -154h-69l10 154h106zM158 600h-91v112h91v-112zM395 600h-90v112h90v-112z" />
    <glyph glyph-name="Alphatonos" unicode="&#x386;" horiz-adv-x="805" 
d="M796 0h-182l-48 118h-330l-49 -118h-178l307 700h172zM402 518l-112 -269h222zM211 700l-53 -154h-94l11 154h136z" />
    <glyph glyph-name="Epsilontonos" unicode="&#x388;" horiz-adv-x="698" 
d="M245 291v-149h411v-142h-580v700h570v-142h-401v-132h355v-135h-355zM45 700l-53 -154h-94l11 154h136z" />
    <glyph glyph-name="Etatonos" unicode="&#x389;" horiz-adv-x="811" 
d="M562 418v282h173v-700h-173v275h-313v-275h-173v700h173v-282h313zM20 700l-53 -154h-94l11 154h136z" />
    <glyph glyph-name="Iotatonos" unicode="&#x38a;" horiz-adv-x="324" 
d="M248 0h-172v700h172v-700zM20 700l-53 -154h-94l11 154h136z" />
    <glyph glyph-name="Omicrontonos" unicode="&#x38c;" horiz-adv-x="855" 
d="M232.5 34.5q-86.5 46.5 -135 129t-48.5 186.5t49 186.5t135 129t195 46.5q108 0 194.5 -46.5t135 -129t48.5 -186.5t-49 -186.5t-135 -129t-195 -46.5q-108 0 -194.5 46.5zM531 164.5q45 26.5 70.5 74.5t25.5 111t-25.5 111t-70.5 74.5t-103 26.5t-103.5 -26.5t-71 -74.5
t-25.5 -111t25.5 -111t71 -74.5t103.5 -26.5t103 26.5zM121 700l-53 -154h-94l11 154h136z" />
    <glyph glyph-name="Upsilontonos" unicode="&#x38e;" horiz-adv-x="743" 
d="M552 700h187l-281 -461v-239h-173v242l-281 458h187l181 -318zM-15 700l-53 -154h-94l11 154h136z" />
    <glyph glyph-name="Omegatonos" unicode="&#x38f;" horiz-adv-x="790" 
d="M721 308q-20 -50 -50 -89t-75 -84l124 9v-144h-283v124q10 31 24 54.5t38 56.5q33 45 49 79t16 84q0 75 -47 119.5t-122 44.5t-122 -44.5t-47 -119.5q0 -50 16 -84.5t49 -79.5q23 -31 37.5 -55t24.5 -55v-124h-282v144l124 -9q-46 46 -76 84.5t-50 88t-20 109.5
q0 74 38 141.5t116 110.5t193 43q114 0 192 -43t115.5 -110.5t37.5 -141.5q0 -59 -20 -109zM41 700l-53 -154h-94l11 154h136z" />
    <glyph glyph-name="iotadieresistonos" unicode="&#x390;" horiz-adv-x="334" 
d="M106.5 37.5q-51.5 49.5 -51.5 143.5v372h165v-350q0 -35 17.5 -54t48.5 -19q7 0 33 2l12 -136q-37 -8 -78 -8q-95 0 -146.5 49.5zM212 795l-47 -154h-69l10 154h106zM67 600h-91v112h91v-112zM304 600h-90v112h90v-112z" />
    <glyph glyph-name="Alpha" unicode="&#x391;" horiz-adv-x="805" 
d="M796 0h-182l-48 118h-330l-49 -118h-178l307 700h172zM402 518l-112 -269h222z" />
    <glyph glyph-name="Beta" unicode="&#x392;" horiz-adv-x="755" 
d="M679.5 298q36.5 -46 36.5 -108q0 -89 -71.5 -139.5t-195.5 -50.5h-373v700h364q116 0 181.5 -46.5t65.5 -130.5q0 -55 -29 -97.5t-79 -62.5q64 -19 100.5 -65zM245 564v-149h162q111 0 111 75q0 39 -27 56.5t-84 17.5h-162zM426 136q61 0 90 19t29 58q0 41 -30 59.5
t-92 18.5h-178v-155h181z" />
    <glyph glyph-name="Gamma" unicode="&#x393;" horiz-adv-x="627" 
d="M76 0v700h531v-146h-361v-554h-170z" />
    <glyph glyph-name="uni0394" unicode="&#x394;" horiz-adv-x="785" 
d="M307 700h172l297 -700h-767zM390 517l-153 -389h308l-151 389h-4z" />
    <glyph glyph-name="Epsilon" unicode="&#x395;" horiz-adv-x="698" 
d="M245 291v-149h411v-142h-580v700h570v-142h-401v-132h355v-135h-355z" />
    <glyph glyph-name="Zeta" unicode="&#x396;" horiz-adv-x="688" 
d="M659 0h-630v111l386 442h-375v147h613v-110l-387 -443h393v-147z" />
    <glyph glyph-name="Eta" unicode="&#x397;" horiz-adv-x="811" 
d="M562 418v282h173v-700h-173v275h-313v-275h-173v700h173v-282h313z" />
    <glyph glyph-name="Theta" unicode="&#x398;" horiz-adv-x="855" 
d="M232.5 34.5q-86.5 46.5 -135 129t-48.5 186.5t49 186.5t135 129t195 46.5q108 0 194.5 -46.5t135 -129t48.5 -186.5t-49 -186.5t-135 -129t-195 -46.5q-108 0 -194.5 46.5zM531 164.5q45 26.5 70.5 74.5t25.5 111t-25.5 111t-70.5 74.5t-103 26.5t-103.5 -26.5t-71 -74.5
t-25.5 -111t25.5 -111t71 -74.5t103.5 -26.5t103 26.5zM272 313v81h314v-81h-314z" />
    <glyph glyph-name="Iota" unicode="&#x399;" horiz-adv-x="324" 
d="M248 0h-172v700h172v-700z" />
    <glyph glyph-name="Kappa" unicode="&#x39a;" horiz-adv-x="771" 
d="M756 0h-194l-193 282l-121 -135v-147h-172v700h172v-345l287 345h206l-261 -293z" />
    <glyph glyph-name="Lambda" unicode="&#x39b;" horiz-adv-x="783" 
d="M9 0l297 700h171l298 -700h-182l-200 502h-2l-200 -502h-182z" />
    <glyph glyph-name="Mu" unicode="&#x39c;" horiz-adv-x="927" 
d="M667 700h174l40 -700h-172l-22 398l-179 -398h-87l-180 398l-22 -398h-173l40 700h176l202 -445z" />
    <glyph glyph-name="Nu" unicode="&#x39d;" horiz-adv-x="812" 
d="M248 0h-172v700h146l342 -417v417h172v-700h-141l-347 424v-424z" />
    <glyph glyph-name="Xi" unicode="&#x39e;" horiz-adv-x="629" 
d="M587 558h-544v142h544v-142zM542 286h-455v132h455v-132zM586 0h-544v141h544v-141z" />
    <glyph glyph-name="Omicron" unicode="&#x39f;" horiz-adv-x="855" 
d="M232.5 34.5q-86.5 46.5 -135 129t-48.5 186.5t49 186.5t135 129t195 46.5q108 0 194.5 -46.5t135 -129t48.5 -186.5t-49 -186.5t-135 -129t-195 -46.5q-108 0 -194.5 46.5zM531 164.5q45 26.5 70.5 74.5t25.5 111t-25.5 111t-70.5 74.5t-103 26.5t-103.5 -26.5t-71 -74.5
t-25.5 -111t25.5 -111t71 -74.5t103.5 -26.5t103 26.5z" />
    <glyph glyph-name="Pi" unicode="&#x3a0;" horiz-adv-x="787" 
d="M711 700v-700h-172v553h-292v-553h-171v700h635z" />
    <glyph glyph-name="Rho" unicode="&#x3a1;" horiz-adv-x="711" 
d="M536.5 669.5q70.5 -30.5 108 -87.5t37.5 -135q0 -79 -38 -136.5t-108.5 -88.5t-166.5 -31h-121v-191h-172v700h294q96 0 166.5 -30.5zM365 331q69 0 106.5 29t37.5 85q0 55 -37.5 83.5t-106.5 28.5h-117v-226h117z" />
    <glyph glyph-name="Sigma" unicode="&#x3a3;" horiz-adv-x="637" 
d="M595 0h-552v116l221 236l-222 232v116h547v-141h-339l185 -207l-185 -211h345v-141z" />
    <glyph glyph-name="Tau" unicode="&#x3a4;" horiz-adv-x="663" 
d="M21 700h621v-147h-225v-553h-173v553h-223v147z" />
    <glyph glyph-name="Upsilon" unicode="&#x3a5;" horiz-adv-x="743" 
d="M552 700h187l-281 -461v-239h-173v242l-281 458h187l181 -318z" />
    <glyph glyph-name="Phi" unicode="&#x3a6;" horiz-adv-x="968" 
d="M877 204.5q-41 -62.5 -120 -98t-189 -38.5v-68h-169v68q-106 4 -185 37.5t-122 96t-43 148.5q0 82 41 144.5t120 98.5t189 39v68h169v-68q106 -4 185 -37.5t122 -96t43 -148.5q0 -83 -41 -145.5zM271.5 244q44.5 -39 127.5 -42v296q-80 -3 -126 -41t-46 -107
q0 -67 44.5 -106zM568 202q81 3 127 41t46 107q0 66 -45 105t-128 43v-296z" />
    <glyph glyph-name="Chi" unicode="&#x3a7;" horiz-adv-x="765" 
d="M496 360l254 -360h-200l-166 241l-167 -241h-202l254 362l-237 338h201l151 -223l150 223h201z" />
    <glyph glyph-name="Psi" unicode="&#x3a8;" horiz-adv-x="888" 
d="M656 700h173v-204q0 -138 -75.5 -215.5t-226.5 -83.5v-197h-166v197q-151 7 -226.5 84.5t-75.5 214.5v204h173v-237q0 -70 34 -105.5t95 -37.5v380h166v-380q61 2 95 37.5t34 105.5v237z" />
    <glyph glyph-name="uni03A9" unicode="&#x3a9;" horiz-adv-x="790" 
d="M721 308q-20 -50 -50 -89t-75 -84l124 9v-144h-283v124q10 31 24 54.5t38 56.5q33 45 49 79t16 84q0 75 -47 119.5t-122 44.5t-122 -44.5t-47 -119.5q0 -50 16 -84.5t49 -79.5q23 -31 37.5 -55t24.5 -55v-124h-282v144l124 -9q-46 46 -76 84.5t-50 88t-20 109.5
q0 74 38 141.5t116 110.5t193 43q114 0 192 -43t115.5 -110.5t37.5 -141.5q0 -59 -20 -109z" />
    <glyph glyph-name="Iotadieresis" unicode="&#x3aa;" horiz-adv-x="324" 
d="M248 0h-172v700h172v-700zM135 752h-108v129h108v-129zM297 752h-108v129h108v-129z" />
    <glyph glyph-name="Upsilondieresis" unicode="&#x3ab;" horiz-adv-x="743" 
d="M552 700h187l-281 -461v-239h-173v242l-281 458h187l181 -318zM344 752h-108v129h108v-129zM506 752h-108v129h108v-129z" />
    <glyph glyph-name="alphatonos" unicode="&#x3ac;" horiz-adv-x="716" 
d="M652 553l-18 -277l18 -276h-165l-2 96q-35 -54 -83.5 -81t-106.5 -27q-74 0 -133 37.5t-92 103t-33 146.5q0 84 33.5 150t92 103t130.5 37q59 0 108.5 -27t83.5 -81l2 96h165zM442 165q40 43 40 111t-40 111.5t-102 43.5q-61 0 -99.5 -43t-38.5 -112q0 -68 38.5 -111
t99.5 -43q62 0 102 43zM455 761l-53 -154h-94l11 154h136z" />
    <glyph glyph-name="epsilontonos" unicode="&#x3ad;" horiz-adv-x="537" 
d="M147.5 8q-55.5 21 -88 60t-32.5 90q0 78 72 121q-67 41 -67 118q0 51 31.5 89t86.5 58.5t125 20.5q75 0 131.5 -18t104.5 -49l-50 -103q-82 46 -165 46q-47 0 -73.5 -15.5t-26.5 -42.5q0 -26 22.5 -40.5t68.5 -14.5h105v-99h-105q-48 0 -72 -15.5t-24 -40.5
q0 -24 27 -39.5t76 -15.5q42 0 92 14.5t86 36.5l50 -110q-98 -72 -252 -72q-67 0 -122.5 21zM366 761l-53 -154h-94l11 154h136z" />
    <glyph glyph-name="etatonos" unicode="&#x3ae;" horiz-adv-x="683" 
d="M569.5 504q58.5 -61 58.5 -169v-506h-165v475q0 114 -105 114q-45 0 -79.5 -27t-50.5 -71v-320h-165v553h165v-74q30 40 76 63t106 23q101 0 159.5 -61zM437 761l-53 -154h-94l11 154h136z" />
    <glyph glyph-name="iotatonos" unicode="&#x3af;" horiz-adv-x="334" 
d="M106.5 37.5q-51.5 49.5 -51.5 143.5v372h165v-350q0 -35 17.5 -54t48.5 -19q7 0 33 2l12 -136q-37 -8 -78 -8q-95 0 -146.5 49.5zM235 761l-53 -154h-94l11 154h136z" />
    <glyph glyph-name="upsilondieresistonos" unicode="&#x3b0;" horiz-adv-x="673" 
d="M453 553h165v-277q0 -82 -35.5 -148t-99.5 -103t-146 -37q-80 0 -144.5 36.5t-101 102t-36.5 149.5v277h165v-291q0 -56 32.5 -92t84.5 -36q51 0 83.5 36t32.5 92v291zM409 795l-47 -154h-69l10 154h106zM264 600h-91v112h91v-112zM501 600h-90v112h90v-112z" />
    <glyph glyph-name="alpha" unicode="&#x3b1;" horiz-adv-x="716" 
d="M652 553l-18 -277l18 -276h-165l-2 96q-35 -54 -83.5 -81t-106.5 -27q-74 0 -133 37.5t-92 103t-33 146.5q0 84 33.5 150t92 103t130.5 37q59 0 108.5 -27t83.5 -81l2 96h165zM442 165q40 43 40 111t-40 111.5t-102 43.5q-61 0 -99.5 -43t-38.5 -112q0 -68 38.5 -111
t99.5 -43q62 0 102 43z" />
    <glyph glyph-name="beta" unicode="&#x3b2;" horiz-adv-x="662" 
d="M63 515q0 218 250 218q64 0 120.5 -22.5t92 -69t35.5 -114.5q0 -42 -17 -80.5t-52 -67.5q34 -7 64.5 -30t49.5 -58.5t19 -79.5q0 -106 -69 -165t-185 -59q-78 0 -142 27v-185h-166v686zM229 149q26 -13 54.5 -20.5t52.5 -7.5q55 0 88.5 25.5t33.5 72.5q0 43 -29 71.5
t-76 28.5h-76v112h35q36 0 59 22t23 56t-23 59t-60 25q-36 0 -59 -18t-23 -60v-366z" />
    <glyph glyph-name="gamma" unicode="&#x3b3;" horiz-adv-x="657" 
d="M467 553h175l-231 -546v-178h-166v173l-230 551h174l137 -371h2z" />
    <glyph glyph-name="delta" unicode="&#x3b4;" horiz-adv-x="641" 
d="M337 620q114 -84 190.5 -183t76.5 -192q0 -75 -36 -133.5t-101 -91t-148 -32.5q-82 0 -146 32.5t-100 91t-36 133.5q0 89 65 154t163 104q-74 62 -152 110v127h452v-120h-228zM405 155.5q33 34.5 33 89.5q0 81 -94 184q-74 -39 -107.5 -82.5t-33.5 -101.5q0 -55 32 -89.5
t84 -34.5q53 0 86 34.5z" />
    <glyph glyph-name="epsilon" unicode="&#x3b5;" horiz-adv-x="537" 
d="M147.5 8q-55.5 21 -88 60t-32.5 90q0 78 72 121q-67 41 -67 118q0 51 31.5 89t86.5 58.5t125 20.5q75 0 131.5 -18t104.5 -49l-50 -103q-82 46 -165 46q-47 0 -73.5 -15.5t-26.5 -42.5q0 -26 22.5 -40.5t68.5 -14.5h105v-99h-105q-48 0 -72 -15.5t-24 -40.5
q0 -24 27 -39.5t76 -15.5q42 0 92 14.5t86 36.5l50 -110q-98 -72 -252 -72q-67 0 -122.5 21z" />
    <glyph glyph-name="zeta" unicode="&#x3b6;" horiz-adv-x="539" 
d="M455 86q39 -23 55.5 -50t16.5 -67q0 -31 -12.5 -67.5t-33.5 -72.5h-144q24 38 35 60.5t11 40.5q0 20 -11 34t-37 26.5t-76 28.5q-116 39 -167 92.5t-51 139.5q0 111 85.5 205t203.5 153h-257v129h420l-2 -127l2 -2q-128 -79 -207 -163.5t-79 -179.5q0 -45 31 -74.5
t105 -55.5q73 -27 112 -50z" />
    <glyph glyph-name="eta" unicode="&#x3b7;" horiz-adv-x="683" 
d="M569.5 504q58.5 -61 58.5 -169v-506h-165v475q0 114 -105 114q-45 0 -79.5 -27t-50.5 -71v-320h-165v553h165v-74q30 40 76 63t106 23q101 0 159.5 -61z" />
    <glyph glyph-name="theta" unicode="&#x3b8;" horiz-adv-x="665" 
d="M488.5 696q66.5 -48 102.5 -133.5t36 -197.5q0 -111 -35.5 -197t-102.5 -134t-157 -48t-157 47.5t-102.5 133.5t-35.5 199q0 111 35.5 196.5t102.5 133.5t158 48q89 0 155.5 -48zM239.5 552q-35.5 -51 -44.5 -135h275q-9 85 -45.5 135.5t-92.5 50.5q-57 0 -92.5 -51z
M425 178.5q36 51.5 45 134.5h-275q9 -85 45.5 -135.5t92.5 -50.5t92 51.5z" />
    <glyph glyph-name="iota" unicode="&#x3b9;" horiz-adv-x="334" 
d="M106.5 37.5q-51.5 49.5 -51.5 143.5v372h165v-350q0 -35 17.5 -54t48.5 -19q7 0 33 2l12 -136q-37 -8 -78 -8q-95 0 -146.5 49.5z" />
    <glyph glyph-name="kappa" unicode="&#x3ba;" horiz-adv-x="646" 
d="M630 0h-180l-139 203h-83v-203h-165v554h165v-206h82l124 206h178l-189 -264z" />
    <glyph glyph-name="lambda" unicode="&#x3bb;" horiz-adv-x="599" 
d="M15 0l212 501l-20 45q-29 83 -110 83v109q27 3 49 3q56 0 90 -16t53.5 -44.5t40.5 -78.5l254 -602h-175l-110 270l-110 -270h-174z" />
    <glyph glyph-name="uni03BC" unicode="&#x3bc;" horiz-adv-x="683" 
d="M455 553h165v-553h-165v74q-30 -40 -75.5 -63t-106.5 -23q-30 0 -59 6l6 -165h-165v724h165v-304q0 -114 105 -114q45 0 79.5 27t50.5 71v320z" />
    <glyph glyph-name="nu" unicode="&#x3bd;" horiz-adv-x="659" 
d="M415 0h-171l-229 553h177l137 -371h1l136 371h178z" />
    <glyph glyph-name="xi" unicode="&#x3be;" horiz-adv-x="552" 
d="M337 -172q4 7 16 27.5t18 37t6 30.5q0 19 -8.5 31t-31.5 23t-71 26q-88 27 -138 59t-70.5 70t-20.5 87q0 64 36 110.5t99 60.5q-57 21 -86.5 64.5t-29.5 94.5q0 96 68.5 148.5t181.5 52.5q66 0 125.5 -17.5t102.5 -45.5l-53 -109q-32 19 -74.5 30t-82.5 11
q-52 0 -78.5 -22t-26.5 -57q0 -43 32 -66t93 -23h81v-128h-101q-54 0 -86 -25.5t-32 -65.5q0 -27 13 -43.5t40 -29.5t87 -34q69 -25 108 -47.5t57 -51t18 -69.5q0 -36 -11 -64t-35 -65h-146z" />
    <glyph glyph-name="omicron" unicode="&#x3bf;" 
d="M187.5 25.5q-70.5 37.5 -110.5 103.5t-40 148t40 148t111 103t159 37t158.5 -37t110.5 -102.5t40 -147.5q0 -83 -40 -149t-110.5 -103.5t-159.5 -37.5q-88 0 -158.5 37.5zM449 171q40 41 40 106q0 66 -40 106.5t-103 40.5q-62 0 -102 -40t-40 -105q0 -67 40 -108t103 -41
q62 0 102 41z" />
    <glyph glyph-name="pi" unicode="&#x3c0;" horiz-adv-x="675" 
d="M612 553v-553h-165v428h-219v-428h-165v553h549z" />
    <glyph glyph-name="rho" unicode="&#x3c1;" horiz-adv-x="710" 
d="M55 277q0 82 40 147.5t110.5 103t158.5 37.5t158.5 -37t110.5 -102.5t40 -147.5t-40 -148.5t-110.5 -104t-158.5 -37.5q-50 0 -94.5 24t-65.5 62l16 -245h-165v448zM262 167q41 -44 103 -44q40 0 72.5 20t51 55t18.5 79t-18.5 79t-51.5 55t-73 20q-62 0 -102.5 -43
t-40.5 -109q0 -68 41 -112z" />
    <glyph glyph-name="uni03C2" unicode="&#x3c2;" horiz-adv-x="589" 
d="M344 -171q24 38 35 60.5t11 40.5q0 19 -11 32t-37.5 26t-80.5 32q-100 34 -162 99t-62 169q0 77 38 140.5t106.5 100t156.5 36.5q66 0 130.5 -27t103.5 -74l-109 -95q-19 25 -52.5 40t-68.5 15q-58 0 -97.5 -36.5t-39.5 -97.5q0 -43 19 -71t45.5 -43t68.5 -32
q78 -33 120 -59t60 -53t18 -63q0 -31 -12.5 -67.5t-33.5 -72.5h-146z" />
    <glyph glyph-name="sigma" unicode="&#x3c3;" horiz-adv-x="709" 
d="M679 395q-24 1 -51 8q28 -58 28 -125q0 -83 -40 -149t-110.5 -103.5t-159.5 -37.5q-88 0 -158.5 37.5t-110.5 103.5t-40 148t40 148t111 103t159 37q55 0 161 -6q110 -6 171 -6v-158zM449 171q40 41 40 106q0 66 -40 106.5t-103 40.5q-62 0 -102 -40t-40 -105
q0 -67 40 -108t103 -41q62 0 102 41z" />
    <glyph glyph-name="tau" unicode="&#x3c4;" horiz-adv-x="468" 
d="M436 420h-147v-217q0 -35 17.5 -54t48.5 -19q7 0 33 2l12 -136q-37 -8 -78 -8q-95 0 -146.5 49.5t-51.5 143.5v239h-94v133h406v-133z" />
    <glyph glyph-name="upsilon" unicode="&#x3c5;" horiz-adv-x="673" 
d="M453 553h165v-277q0 -82 -35.5 -148t-99.5 -103t-146 -37q-80 0 -144.5 36.5t-101 102t-36.5 149.5v277h165v-291q0 -56 32.5 -92t84.5 -36q51 0 83.5 36t32.5 92v291z" />
    <glyph glyph-name="phi" unicode="&#x3c6;" horiz-adv-x="868" 
d="M791.5 136q-39.5 -62 -111 -97.5t-163.5 -38.5v-170h-165v170q-92 2 -164 38t-111.5 97.5t-39.5 140.5t39.5 141t111 98t164.5 38v147h165v-147q93 -3 164 -38.5t110.5 -97t39.5 -140.5t-39.5 -141zM243 170q39 -39 109 -41v295q-70 -2 -109 -40t-39 -107q0 -68 39 -107z
M517 129q70 2 108.5 40.5t38.5 106.5q0 69 -38 107.5t-109 40.5v-295z" />
    <glyph glyph-name="chi" unicode="&#x3c7;" horiz-adv-x="665" 
d="M430 203l220 -374h-183l-134 229l-135 -229h-183l220 374l-208 350h190l116 -212l115 212h190z" />
    <glyph glyph-name="psi" unicode="&#x3c8;" horiz-adv-x="852" 
d="M624 553h165v-276q0 -131 -77 -201.5t-207 -74.5v-172h-165v172q-125 5 -205 74t-80 202v276h165v-275q0 -60 33 -95.5t91 -39.5v410h158v-410q56 4 89 39t33 96v275z" />
    <glyph glyph-name="omega" unicode="&#x3c9;" horiz-adv-x="920" 
d="M58 403q21 71 72 150h168q-94 -129 -94 -273q0 -72 23.5 -114.5t66.5 -42.5q42 0 66 34t24 94v137h152v-137q0 -60 23.5 -94t65.5 -34q44 0 67.5 42t23.5 115q0 67 -21.5 134.5t-72.5 138.5h167q52 -80 73 -150t21 -149q0 -81 -30.5 -141.5t-83 -92.5t-117.5 -32
q-78 0 -129.5 34t-62.5 91q-13 -58 -63.5 -91.5t-127.5 -33.5q-65 0 -118 32t-83.5 92.5t-30.5 141.5q0 78 21 149z" />
    <glyph glyph-name="iotadieresis" unicode="&#x3ca;" horiz-adv-x="334" 
d="M106.5 37.5q-51.5 49.5 -51.5 143.5v372h165v-350q0 -35 17.5 -54t48.5 -19q7 0 33 2l12 -136q-37 -8 -78 -8q-95 0 -146.5 49.5zM113 605h-108v129h108v-129zM275 605h-108v129h108v-129z" />
    <glyph glyph-name="upsilondieresis" unicode="&#x3cb;" horiz-adv-x="673" 
d="M453 553h165v-277q0 -82 -35.5 -148t-99.5 -103t-146 -37q-80 0 -144.5 36.5t-101 102t-36.5 149.5v277h165v-291q0 -56 32.5 -92t84.5 -36q51 0 83.5 36t32.5 92v291zM310 605h-108v129h108v-129zM472 605h-108v129h108v-129z" />
    <glyph glyph-name="omicrontonos" unicode="&#x3cc;" 
d="M187.5 25.5q-70.5 37.5 -110.5 103.5t-40 148t40 148t111 103t159 37t158.5 -37t110.5 -102.5t40 -147.5q0 -83 -40 -149t-110.5 -103.5t-159.5 -37.5q-88 0 -158.5 37.5zM449 171q40 41 40 106q0 66 -40 106.5t-103 40.5q-62 0 -102 -40t-40 -105q0 -67 40 -108t103 -41
q62 0 102 41zM441 761l-53 -154h-94l11 154h136z" />
    <glyph glyph-name="upsilontonos" unicode="&#x3cd;" horiz-adv-x="673" 
d="M453 553h165v-277q0 -82 -35.5 -148t-99.5 -103t-146 -37q-80 0 -144.5 36.5t-101 102t-36.5 149.5v277h165v-291q0 -56 32.5 -92t84.5 -36q51 0 83.5 36t32.5 92v291zM432 761l-53 -154h-94l11 154h136z" />
    <glyph glyph-name="omegatonos" unicode="&#x3ce;" horiz-adv-x="920" 
d="M58 403q21 71 72 150h168q-94 -129 -94 -273q0 -72 23.5 -114.5t66.5 -42.5q42 0 66 34t24 94v137h152v-137q0 -60 23.5 -94t65.5 -34q44 0 67.5 42t23.5 115q0 67 -21.5 134.5t-72.5 138.5h167q52 -80 73 -150t21 -149q0 -81 -30.5 -141.5t-83 -92.5t-117.5 -32
q-78 0 -129.5 34t-62.5 91q-13 -58 -63.5 -91.5t-127.5 -33.5q-65 0 -118 32t-83.5 92.5t-30.5 141.5q0 78 21 149zM554 761l-53 -154h-94l11 154h136z" />
    <glyph glyph-name="uni0400" unicode="&#x400;" horiz-adv-x="698" 
d="M245 291v-149h411v-142h-580v700h570v-142h-401v-132h355v-135h-355zM411 764l-115 -11l-117 125l156 36z" />
    <glyph glyph-name="uni0401" unicode="&#x401;" horiz-adv-x="698" 
d="M245 291v-149h411v-142h-580v700h570v-142h-401v-132h355v-135h-355zM320 752h-108v129h108v-129zM482 752h-108v129h108v-129z" />
    <glyph glyph-name="uni0402" unicode="&#x402;" horiz-adv-x="814" 
d="M702.5 380.5q61.5 -57.5 61.5 -161.5v-11q0 -68 -30.5 -118t-84.5 -76t-122 -26q-51 0 -105 17l29 131q27 -8 49 -8q39 0 62 19.5t23 55.5v6q0 41 -26 65t-75 24q-53 0 -116 -18v-280h-173v559h-174v141h611v-141h-264v-145q94 24 168 24q105 0 166.5 -57.5z" />
    <glyph glyph-name="uni0403" unicode="&#x403;" horiz-adv-x="627" 
d="M76 0v700h531v-146h-361v-554h-170zM466 878l-117 -125l-115 11l77 150z" />
    <glyph glyph-name="uni0404" unicode="&#x404;" horiz-adv-x="724" 
d="M696 75q-126 -88 -265 -88q-107 0 -194 45t-137.5 127.5t-50.5 190.5q0 110 49 192t134.5 126t191.5 44q142 0 270 -87l-73 -130q-95 68 -189 68q-75 0 -129 -40t-71 -112h282v-116h-283q15 -74 70.5 -115.5t132.5 -41.5q95 0 190 67z" />
    <glyph glyph-name="uni0405" unicode="&#x405;" horiz-adv-x="669" 
d="M170.5 2.5q-75.5 15.5 -134.5 46.5l14 146q54 -28 134.5 -45.5t144.5 -17.5q62 0 96.5 14.5t34.5 53.5q0 28 -15 43.5t-43 24.5t-85 20q-94 16 -152.5 39.5t-89 64t-30.5 103.5q0 69 40.5 118t108.5 74t150 25q141 0 255 -52l-21 -146q-128 54 -234 54q-57 0 -86.5 -14
t-29.5 -52q0 -22 12 -35t39.5 -22t81.5 -19q143 -25 212 -74.5t69 -144.5q0 -71 -41.5 -120.5t-112.5 -74.5t-159 -25q-83 0 -158.5 15.5z" />
    <glyph glyph-name="uni0406" unicode="&#x406;" horiz-adv-x="324" 
d="M248 0h-172v700h172v-700z" />
    <glyph glyph-name="uni0407" unicode="&#x407;" horiz-adv-x="324" 
d="M248 0h-172v700h172v-700zM135 752h-108v129h108v-129zM297 752h-108v129h108v-129z" />
    <glyph glyph-name="uni0408" unicode="&#x408;" horiz-adv-x="559" 
d="M113.5 3q-56.5 16 -108.5 47l51 140q79 -53 155 -53q55 0 87.5 32.5t32.5 95.5v294h-121v141h290v-447q0 -83 -37 -143.5t-99.5 -91.5t-139.5 -31q-54 0 -110.5 16z" />
    <glyph glyph-name="uni0409" unicode="&#x409;" horiz-adv-x="1131" 
d="M791 509q95 0 165.5 -31t108 -88.5t37.5 -136.5q0 -78 -37.5 -135t-107.5 -87.5t-165 -30.5h-267v559h-215l-6 -233q-3 -129 -39 -201t-96.5 -99t-147.5 -26v136q51 2 80 42t31 143l9 379h557v-191h93zM787 135q67 0 105 31t38 87q0 57 -38 89t-105 32h-89v-239h89z" />
    <glyph glyph-name="uni040A" unicode="&#x40a;" horiz-adv-x="1126" 
d="M798 466q144 0 222 -58.5t78 -172.5q0 -112 -78 -173.5t-220 -61.5h-283v317h-269v-317h-172v700h172v-236h269v236h172v-234h109zM793 136q67 0 100 24t33 70q0 95 -133 95h-104v-189h104z" />
    <glyph glyph-name="uni040B" unicode="&#x40b;" horiz-adv-x="826" 
d="M661 410q52 -28 81 -81.5t29 -128.5v-200h-165v162q0 66 -34.5 101t-91.5 35q-65 0 -112 -15v-283h-173v559h-174v141h611v-141h-264v-147q98 26 174 26q67 0 119 -28z" />
    <glyph glyph-name="uni040C" unicode="&#x40c;" horiz-adv-x="744" 
d="M729 0h-189l-186 273h-106v-273h-172v700h172v-272h110l165 272h193l-234 -339zM533 850l-107 -107l-129 7l88 130z" />
    <glyph glyph-name="uni040D" unicode="&#x40d;" horiz-adv-x="812" 
d="M736 700v-700h-172v424l-347 -424h-141v700h173v-417l341 417h146zM471 764l-115 -11l-117 125l156 36z" />
    <glyph glyph-name="uni040E" unicode="&#x40e;" horiz-adv-x="671" 
d="M663 699l-240 -565v-1l-4 -9q-32 -70 -79.5 -102.5t-133.5 -32.5q-42 0 -84.5 11t-65.5 26l55 134q48 -25 93 -25q24 0 39 12l-234 552h178l148 -382h1l147 382h180zM508 888q0 -68 -43.5 -107t-124.5 -39q-80 0 -123.5 39t-43.5 107h120q0 -28 11.5 -41.5t35.5 -13.5
q25 0 36.5 13.5t11.5 41.5h120z" />
    <glyph glyph-name="uni040F" unicode="&#x40f;" horiz-adv-x="787" 
d="M539 147v553h172v-700h-231v-116h-173v116h-231v700h171v-553h292z" />
    <glyph glyph-name="uni0410" unicode="&#x410;" horiz-adv-x="805" 
d="M796 0h-181l-46 115h-336l-46 -115h-178l290 700h206zM402 533l-115 -286h229z" />
    <glyph glyph-name="uni0411" unicode="&#x411;" horiz-adv-x="732" 
d="M421 445q100 0 160.5 -35t86 -87.5t25.5 -110.5q0 -61 -31.5 -109.5t-89.5 -75.5t-134 -27h-362v700h524v-137h-352v-118h173zM405 138q54 0 86 22t32 69q0 41 -32 65.5t-83 24.5h-160v-181h157z" />
    <glyph glyph-name="uni0412" unicode="&#x412;" horiz-adv-x="755" 
d="M679.5 298q36.5 -46 36.5 -108q0 -89 -71.5 -139.5t-195.5 -50.5h-373v700h364q116 0 181.5 -46.5t65.5 -130.5q0 -55 -29 -97.5t-79 -62.5q64 -19 100.5 -65zM245 564v-149h162q111 0 111 75q0 39 -27 56.5t-84 17.5h-162zM426 136q61 0 90 19t29 58q0 41 -30 59.5
t-92 18.5h-178v-155h181z" />
    <glyph glyph-name="uni0413" unicode="&#x413;" horiz-adv-x="627" 
d="M76 0v700h531v-146h-361v-554h-170z" />
    <glyph glyph-name="uni0414" unicode="&#x414;" horiz-adv-x="816" 
d="M21 -120v267h67q28 19 46 69.5t21 156.5l10 327h540v-553h91v-267h-170v120h-436v-120h-169zM532 147v406h-199l-6 -197q-4 -138 -36 -209h241z" />
    <glyph glyph-name="uni0415" unicode="&#x415;" horiz-adv-x="698" 
d="M245 291v-149h411v-142h-580v700h570v-142h-401v-132h355v-135h-355z" />
    <glyph glyph-name="uni0416" unicode="&#x416;" horiz-adv-x="1050" 
d="M1035 0h-189l-181 273h-57v-273h-172v273h-56l-176 -273h-189l239 365l-226 335h193l158 -272h57v272h172v-272h57l164 272h193l-231 -336z" />
    <glyph glyph-name="uni0417" unicode="&#x417;" horiz-adv-x="650" 
d="M580 297q37 -46 37 -108q0 -65 -43.5 -110.5t-115.5 -68.5t-157 -23q-74 0 -145.5 17t-128.5 50l67 124q36 -21 90.5 -34t105.5 -13q139 0 139 76q0 43 -34.5 67t-99.5 24h-148v125h140q70 0 102 15.5t32 55.5q0 37 -38 56t-97 19q-49 0 -102 -13t-90 -35l-67 128
q60 30 131 46.5t143 16.5q83 0 153.5 -22t112.5 -66t42 -108t-33.5 -104t-101.5 -54q69 -15 106 -61z" />
    <glyph glyph-name="uni0418" unicode="&#x418;" horiz-adv-x="812" 
d="M736 700v-700h-172v424l-347 -424h-141v700h173v-417l341 417h146z" />
    <glyph glyph-name="uni0419" unicode="&#x419;" horiz-adv-x="812" 
d="M736 700v-700h-172v424l-347 -424h-141v700h173v-417l341 417h146zM574 889q0 -68 -43.5 -107t-124.5 -39q-80 0 -123.5 39t-43.5 107h120q0 -28 11.5 -41.5t35.5 -13.5q25 0 36.5 13.5t11.5 41.5h120z" />
    <glyph glyph-name="uni041A" unicode="&#x41a;" horiz-adv-x="744" 
d="M729 0h-189l-186 273h-106v-273h-172v700h172v-272h110l165 272h193l-234 -339z" />
    <glyph glyph-name="uni041B" unicode="&#x41b;" horiz-adv-x="797" 
d="M21 136q51 2 80 42t31 143l9 379h580v-700h-172v559h-239l-6 -233q-3 -129 -39 -201t-96.5 -99t-147.5 -26v136z" />
    <glyph glyph-name="uni041C" unicode="&#x41c;" horiz-adv-x="923" 
d="M462 336l226 364h159v-700h-167v415l-191 -301h-54l-192 301v-415h-167v700h160z" />
    <glyph glyph-name="uni041D" unicode="&#x41d;" horiz-adv-x="811" 
d="M562 418v282h173v-700h-173v275h-313v-275h-173v700h173v-282h313z" />
    <glyph glyph-name="uni041E" unicode="&#x41e;" horiz-adv-x="855" 
d="M232.5 34.5q-86.5 46.5 -135 129t-48.5 186.5t49 186.5t135 129t195 46.5q108 0 194.5 -46.5t135 -129t48.5 -186.5t-49 -186.5t-135 -129t-195 -46.5q-108 0 -194.5 46.5zM531 164.5q45 26.5 70.5 74.5t25.5 111t-25.5 111t-70.5 74.5t-103 26.5t-103.5 -26.5t-71 -74.5
t-25.5 -111t25.5 -111t71 -74.5t103.5 -26.5t103 26.5z" />
    <glyph glyph-name="uni041F" unicode="&#x41f;" horiz-adv-x="787" 
d="M711 700v-700h-172v553h-292v-553h-171v700h635z" />
    <glyph glyph-name="uni0420" unicode="&#x420;" horiz-adv-x="711" 
d="M536.5 669.5q70.5 -30.5 108 -87.5t37.5 -135q0 -79 -38 -136.5t-108.5 -88.5t-166.5 -31h-121v-191h-172v700h294q96 0 166.5 -30.5zM365 331q69 0 106.5 29t37.5 85q0 55 -37.5 83.5t-106.5 28.5h-117v-226h117z" />
    <glyph glyph-name="uni0421" unicode="&#x421;" horiz-adv-x="724" 
d="M237 32q-87 45 -137.5 127.5t-50.5 190.5q0 110 49 192t134.5 126t191.5 44q142 0 270 -87l-73 -130q-95 68 -189 68q-59 0 -106 -25.5t-74 -73.5t-27 -113q0 -66 27.5 -114.5t74.5 -73.5t107 -25q95 0 190 67l72 -130q-126 -88 -265 -88q-107 0 -194 45z" />
    <glyph glyph-name="uni0422" unicode="&#x422;" horiz-adv-x="663" 
d="M21 700h621v-147h-225v-553h-173v553h-223v147z" />
    <glyph glyph-name="uni0423" unicode="&#x423;" horiz-adv-x="671" 
d="M663 699l-240 -565v-1l-4 -9q-32 -70 -79.5 -102.5t-133.5 -32.5q-42 0 -84.5 11t-65.5 26l55 134q48 -25 93 -25q24 0 39 12l-234 552h178l148 -382h1l147 382h180z" />
    <glyph glyph-name="uni0424" unicode="&#x424;" horiz-adv-x="968" 
d="M877 204.5q-41 -62.5 -120 -98t-189 -38.5v-68h-169v68q-106 4 -185 37.5t-122 96t-43 148.5q0 82 41 144.5t120 98.5t189 39v68h169v-68q106 -4 185 -37.5t122 -96t43 -148.5q0 -83 -41 -145.5zM271.5 244q44.5 -39 127.5 -42v296q-80 -3 -126 -41t-46 -107
q0 -67 44.5 -106zM568 202q81 3 127 41t46 107q0 66 -45 105t-128 43v-296z" />
    <glyph glyph-name="uni0425" unicode="&#x425;" horiz-adv-x="765" 
d="M496 360l254 -360h-200l-166 241l-167 -241h-202l254 362l-237 338h201l151 -223l150 223h201z" />
    <glyph glyph-name="uni0426" unicode="&#x426;" horiz-adv-x="822" 
d="M632 0h-556v700h171v-553h292v553h172v-553h90v-267h-169v120z" />
    <glyph glyph-name="uni0427" unicode="&#x427;" horiz-adv-x="748" 
d="M499 700h173v-700h-173v233q-114 -33 -211 -33q-67 0 -119 28t-81 81.5t-29 128.5v262h166v-224q0 -65 35 -101t91 -36q52 0 84.5 6.5t63.5 17.5v337z" />
    <glyph glyph-name="uni0428" unicode="&#x428;" horiz-adv-x="1057" 
d="M981 0h-905v700h172v-559h194v559h173v-559h193v559h173v-700z" />
    <glyph glyph-name="uni0429" unicode="&#x429;" horiz-adv-x="1095" 
d="M981 700v-553h94v-267h-170v120h-829v700h172v-559h194v559h173v-559h193v559h173z" />
    <glyph glyph-name="uni042A" unicode="&#x42a;" horiz-adv-x="778" 
d="M428 516q95 0 165.5 -32.5t108.5 -92t38 -138.5q0 -78 -37.5 -135t-108 -87.5t-165.5 -30.5h-294v557h-114v143h287v-184h120zM424 142q67 0 105.5 30t38.5 81q0 57 -38 89t-106 32h-116v-232h116z" />
    <glyph glyph-name="uni042B" unicode="&#x42b;" horiz-adv-x="1034" 
d="M369 516q95 0 166 -32.5t109 -92t38 -138.5q0 -78 -38 -135t-108.5 -87.5t-165.5 -30.5h-294v700h173v-184h120zM365 142q67 0 105.5 30t38.5 81q0 57 -38 89t-106 32h-116v-232h116zM958 0h-172v700h172v-700z" />
    <glyph glyph-name="uni042C" unicode="&#x42c;" horiz-adv-x="710" 
d="M369 516q95 0 166 -32.5t109 -92t38 -138.5q0 -78 -38 -135t-108.5 -87.5t-165.5 -30.5h-294v700h173v-184h120zM365 142q67 0 105.5 30t38.5 81q0 57 -38 89t-106 32h-116v-232h116z" />
    <glyph glyph-name="uni042D" unicode="&#x42d;" horiz-adv-x="724" 
d="M490.5 668q85.5 -44 134.5 -126t49 -192q0 -108 -50.5 -190.5t-137 -127.5t-193.5 -45q-140 0 -266 88l73 130q93 -67 190 -67q77 0 132 41.5t71 115.5h-291v117h290q-17 71 -71 111t-129 40q-94 0 -189 -68l-73 130q128 87 269 87q106 0 191.5 -44z" />
    <glyph glyph-name="uni042E" unicode="&#x42e;" horiz-adv-x="1159" 
d="M926 665.5q86 -46.5 134.5 -129t48.5 -186.5t-48.5 -186.5t-135 -129t-194.5 -46.5q-96 0 -175 36.5t-130.5 103t-66.5 152.5h-111v-280h-172v700h172v-278h112q15 85 66.5 151t130.5 102.5t174 36.5q109 0 195 -46.5zM835 160q46 28 72.5 77.5t26.5 112.5t-26.5 113
t-72.5 78t-104 28t-104 -28t-72.5 -78t-26.5 -113t26.5 -112.5t72.5 -77.5t104 -28t104 28z" />
    <glyph glyph-name="uni042F" unicode="&#x42f;" horiz-adv-x="724" 
d="M648 0h-172v216h-86l-171 -216h-200l186 235q-83 25 -127.5 82t-44.5 140q0 114 82.5 178.5t228.5 64.5h304v-700zM476 354v203h-127q-69 0 -106.5 -26t-37.5 -77q0 -52 37 -76t107 -24h127z" />
    <glyph glyph-name="uni0430" unicode="&#x430;" horiz-adv-x="621" 
d="M498 501.5q68 -63.5 68 -178.5v-323h-165v70q-25 -36 -72 -59t-110 -23q-57 0 -101 22t-68 62t-24 92q0 80 55 127t165 47q79 0 154 -7v4q0 94 -128 94q-93 0 -170 -30l-16 136q98 30 204 30q140 0 208 -63.5zM364 147.5q32 29.5 36 78.5v14q-48 6 -107 6
q-109 0 -109 -67q0 -30 24 -45.5t67 -15.5q57 0 89 29.5z" />
    <glyph glyph-name="uni0431" unicode="&#x431;" horiz-adv-x="687" 
d="M147.5 56.5q-80.5 68.5 -102.5 190.5q-8 43 -8 88q0 177 84.5 267.5t254.5 107.5q67 6 100 10.5t65 12.5v-132q-25 -7 -85 -12l-71 -8q-94 -13 -132 -60.5t-41 -122.5q64 99 197 99q69 0 123.5 -34t85.5 -92.5t31 -129.5q0 -76 -37 -133.5t-104 -88.5t-154 -31
q-126 0 -206.5 68.5zM449.5 157q35.5 34 35.5 91q0 53 -36.5 89t-90.5 36q-55 0 -95.5 -34t-40.5 -87q0 -28 14.5 -58t45 -50.5t75.5 -20.5q57 0 92.5 34z" />
    <glyph glyph-name="uni0432" unicode="&#x432;" horiz-adv-x="627" 
d="M556.5 240q33.5 -36 33.5 -88q0 -72 -57.5 -112t-161.5 -40h-308v554h300q97 0 150.5 -37t53.5 -104q0 -45 -27.5 -77t-80.5 -47q64 -13 97.5 -49zM225 426v-94h113q69 0 69 49q0 45 -68 45h-114zM357 128q36 0 52.5 11t16.5 36q0 44 -66 44h-135v-91h132z" />
    <glyph glyph-name="uni0433" unicode="&#x433;" horiz-adv-x="486" 
d="M63 0v553h421v-129h-256v-424h-165z" />
    <glyph glyph-name="uni0434" unicode="&#x434;" horiz-adv-x="703" 
d="M624 126h76v-225h-159v99h-379v-99h-159v225h48q21 15 33 44t14 84l8 299h518v-427zM459 126v302h-192l-4 -160q-3 -91 -33 -142h229z" />
    <glyph glyph-name="uni0435" unicode="&#x435;" horiz-adv-x="650" 
d="M204 227q12 -51 50.5 -78.5t97.5 -27.5q41 0 72.5 12.5t57.5 41.5l98 -86q-93 -100 -234 -100q-88 0 -158.5 37t-110.5 103t-40 148t38 147.5t106 102.5t157 37q80 0 142 -34t97 -93.5t35 -133.5q0 -33 -7 -76h-401zM248.5 405q-33.5 -27 -44.5 -77h250q-7 51 -38.5 77.5
t-80.5 26.5q-53 0 -86.5 -27z" />
    <glyph glyph-name="uni0436" unicode="&#x436;" horiz-adv-x="918" 
d="M903 0h-181l-134 203h-49v-203h-160v203h-49l-135 -203h-180l201 298l-182 256h178l111 -194h56v193h160v-193h55l111 194h178l-181 -255z" />
    <glyph glyph-name="uni0437" unicode="&#x437;" horiz-adv-x="535" 
d="M16 59l50 110q36 -22 86 -36.5t92 -14.5q49 0 76 15.5t27 39.5q0 25 -24 40.5t-72 15.5h-105v99h105q46 0 68.5 14.5t22.5 40.5q0 27 -26.5 42.5t-73.5 15.5q-83 0 -165 -46l-50 103q48 31 104.5 49t131.5 18q70 0 125 -20.5t86.5 -58.5t31.5 -89q0 -77 -67 -118
q72 -43 72 -121q0 -51 -32.5 -90t-88 -60t-122.5 -21q-154 0 -252 72z" />
    <glyph glyph-name="uni0438" unicode="&#x438;" horiz-adv-x="689" 
d="M626 553v-553h-165v302l-270 -302h-128v553h166v-295l265 295h132z" />
    <glyph glyph-name="uni0439" unicode="&#x439;" horiz-adv-x="689" 
d="M626 553v-553h-165v302l-270 -302h-128v553h166v-295l265 295h132zM512 742q0 -68 -43.5 -107t-124.5 -39q-80 0 -123.5 39t-43.5 107h120q0 -28 11.5 -41.5t35.5 -13.5q25 0 36.5 13.5t11.5 41.5h120z" />
    <glyph glyph-name="uni043A" unicode="&#x43a;" horiz-adv-x="646" 
d="M630 0h-180l-139 203h-83v-203h-165v554h165v-206h82l124 206h178l-189 -264z" />
    <glyph glyph-name="uni043B" unicode="&#x43b;" horiz-adv-x="632" 
d="M569 0h-166v424h-161l-4 -196q-2 -118 -44 -176.5t-127 -58.5q-32 0 -64 7v120q37 1 53.5 25t17.5 88l6 320h489v-553z" />
    <glyph glyph-name="uni043C" unicode="&#x43c;" horiz-adv-x="791" 
d="M396 311l174 243h158v-554h-160v295l-153 -204h-38l-154 204v-295h-160v554h158z" />
    <glyph glyph-name="uni043D" unicode="&#x43d;" horiz-adv-x="681" 
d="M452 346v208h166v-554h-166v219h-224v-219h-165v554h165v-208h224z" />
    <glyph glyph-name="uni043E" unicode="&#x43e;" 
d="M187.5 25.5q-70.5 37.5 -110.5 103.5t-40 148t40 148t111 103t159 37t158.5 -37t110.5 -102.5t40 -147.5q0 -83 -40 -149t-110.5 -103.5t-159.5 -37.5q-88 0 -158.5 37.5zM449 171q40 41 40 106q0 66 -40 106.5t-103 40.5q-62 0 -102 -40t-40 -105q0 -67 40 -108t103 -41
q62 0 102 41z" />
    <glyph glyph-name="uni043F" unicode="&#x43f;" horiz-adv-x="675" 
d="M612 553v-553h-165v428h-219v-428h-165v553h549z" />
    <glyph glyph-name="uni0440" unicode="&#x440;" horiz-adv-x="711" 
d="M63 -172v725h165v-62q68 74 181 74q73 0 133.5 -37t95.5 -103.5t35 -149.5q0 -84 -34.5 -149.5t-95 -101.5t-135.5 -36q-113 0 -180 73v-233h-165zM470 170.5q38 40.5 38 104.5q0 67 -37.5 107.5t-99.5 40.5q-65 0 -103.5 -42t-39.5 -104q0 -67 39.5 -107t103.5 -40
q61 0 99 40.5z" />
    <glyph glyph-name="uni0441" unicode="&#x441;" horiz-adv-x="570" 
d="M184.5 24.5q-68.5 35.5 -108 101t-39.5 151.5q0 85 41 150.5t109.5 101.5t149.5 36q63 0 115.5 -16.5t101.5 -53.5l-67 -119q-36 26 -67.5 37.5t-67.5 11.5q-65 0 -106 -39t-41 -109t41 -109.5t107 -39.5q69 0 136 46l65 -116q-54 -39 -103.5 -54t-113.5 -15
q-84 0 -152.5 35.5z" />
    <glyph glyph-name="uni0442" unicode="&#x442;" horiz-adv-x="578" 
d="M30 553h518v-136h-177v-417h-164v417h-177v136z" />
    <glyph glyph-name="uni0443" unicode="&#x443;" horiz-adv-x="659" 
d="M103.5 -173q-40.5 10 -65.5 23l38 114q45 -18 86 -18q31 0 48 12.5t30 42.5l4 7l-229 545h177l137 -371h1l136 371h178l-243 -586q-34 -82 -83 -116t-136 -34q-38 0 -78.5 10z" />
    <glyph glyph-name="uni0444" unicode="&#x444;" horiz-adv-x="868" 
d="M791.5 136q-39.5 -62 -111 -97.5t-163.5 -38.5v-170h-165v170q-92 2 -164 38t-111.5 97.5t-39.5 140.5t39.5 141t111 98t164.5 38v147h165v-147q93 -3 164 -38.5t110.5 -97t39.5 -140.5t-39.5 -141zM243 170q39 -39 109 -41v295q-70 -2 -109 -40t-39 -107q0 -68 39 -107z
M517 129q70 2 108.5 40.5t38.5 106.5q0 69 -38 107.5t-109 40.5v-295z" />
    <glyph glyph-name="uni0445" unicode="&#x445;" horiz-adv-x="666" 
d="M430 285l221 -285h-187l-132 173l-133 -173h-184l219 283l-209 270h193l115 -160l115 160h190z" />
    <glyph glyph-name="uni0446" unicode="&#x446;" 
d="M612 553v-427h78v-225h-159v99h-468v553h165v-428h219v428h165z" />
    <glyph glyph-name="uni0447" unicode="&#x447;" horiz-adv-x="678" 
d="M449 553h166v-553h-166v194q-47 -18 -90.5 -29.5t-98.5 -11.5q-100 0 -155.5 60.5t-55.5 171.5v168h166v-137q0 -58 29.5 -91t83.5 -33q37 0 69.5 9.5t51.5 20.5v231z" />
    <glyph glyph-name="uni0448" unicode="&#x448;" horiz-adv-x="949" 
d="M721 126v427h165v-553h-823v553h165v-427h164v427h165v-427h164z" />
    <glyph glyph-name="uni0449" unicode="&#x449;" horiz-adv-x="964" 
d="M886 553v-427h75v-225h-158v99h-740v553h165v-427h164v427h165v-427h164v427h165z" />
    <glyph glyph-name="uni044A" unicode="&#x44a;" horiz-adv-x="682" 
d="M381 415q80 0 140 -25.5t92.5 -72.5t32.5 -111q0 -96 -71 -151t-194 -55h-251v430h-134v123h299v-138h86zM377 129q48 0 75.5 20.5t27.5 57.5q0 36 -27.5 57t-76.5 21h-81v-156h82z" />
    <glyph glyph-name="uni044B" unicode="&#x44b;" horiz-adv-x="897" 
d="M314 415q122 0 193.5 -56t71.5 -153q0 -96 -71 -151t-193 -55h-252v553h165v-138h86zM310 129q48 0 75.5 20.5t27.5 57.5q0 36 -27.5 57t-75.5 21h-82v-156h82zM834 0h-165v553h165v-553z" />
    <glyph glyph-name="uni044C" unicode="&#x44c;" horiz-adv-x="606" 
d="M314 415q122 0 193.5 -56t71.5 -153q0 -96 -71 -151t-193 -55h-252v553h165v-138h86zM310 129q48 0 75.5 20.5t27.5 57.5q0 36 -27.5 57t-75.5 21h-82v-156h82z" />
    <glyph glyph-name="uni044D" unicode="&#x44d;" horiz-adv-x="589" 
d="M400 528q70 -37 110.5 -102.5t40.5 -149.5q0 -83 -40.5 -148.5t-111 -102.5t-157.5 -37q-67 0 -126 25.5t-101 75.5l109 95q24 -30 52.5 -42.5t62.5 -12.5q49 0 86 25t51 70h-183v106h183q-14 45 -50 69.5t-84 24.5q-36 0 -65 -12.5t-53 -42.5l-109 95q42 51 101.5 76
t126.5 25q87 0 157 -37z" />
    <glyph glyph-name="uni044E" unicode="&#x44e;" horiz-adv-x="981" 
d="M793.5 528q70.5 -37 110 -102.5t39.5 -147.5q0 -83 -39.5 -149t-110 -103.5t-159.5 -37.5q-77 0 -140.5 28t-105.5 79t-56 117h-104v-212h-165v554h165v-214h103q14 67 56.5 118t106 79t140.5 28q89 0 159.5 -37zM737 171q40 41 40 106q0 66 -40 106.5t-103 40.5
t-103 -40t-40 -105q0 -67 40.5 -108t103.5 -41q62 0 102 41z" />
    <glyph glyph-name="uni044F" unicode="&#x44f;" horiz-adv-x="638" 
d="M575 553v-553h-164v164h-75l-135 -164h-182l154 184q-61 22 -95.5 66t-34.5 108q0 92 70 143.5t190 51.5h272zM411 286v132h-106q-99 0 -99 -68q0 -36 27 -50t72 -14h106z" />
    <glyph glyph-name="uni0450" unicode="&#x450;" horiz-adv-x="649" 
d="M203 228q12 -53 52.5 -79.5t103.5 -26.5q38 0 79.5 11t73.5 32l38 -121q-46 -30 -95.5 -43t-109.5 -13q-87 0 -157.5 36.5t-110.5 102.5t-40 150q0 82 38 148t106.5 103t156.5 37q78 0 140.5 -31.5t98 -87t35.5 -124.5q0 -47 -18 -94h-391zM247 404.5
q-33 -27.5 -44 -79.5l247 1q-2 52 -33.5 79t-83.5 27q-53 0 -86 -27.5zM391 617l-115 -11l-117 125l156 36z" />
    <glyph glyph-name="uni0451" unicode="&#x451;" horiz-adv-x="649" 
d="M203 228q12 -53 52.5 -79.5t103.5 -26.5q38 0 79.5 11t73.5 32l38 -121q-46 -30 -95.5 -43t-109.5 -13q-87 0 -157.5 36.5t-110.5 102.5t-40 150q0 82 38 148t106.5 103t156.5 37q78 0 140.5 -31.5t98 -87t35.5 -124.5q0 -47 -18 -94h-391zM247 404.5
q-33 -27.5 -44 -79.5l247 1q-2 52 -33.5 79t-83.5 27q-53 0 -86 -27.5zM300 605h-108v129h108v-129zM462 605h-108v129h108v-129z" />
    <glyph glyph-name="uni0452" unicode="&#x452;" horiz-adv-x="775" 
d="M655 504q59 -61 59 -169v-335h-2q0 -92 -53.5 -141t-153.5 -49q-21 0 -36 3v139h11q33 0 50.5 16.5t17.5 55.5v148q0 35 1 49v83q0 114 -105 114q-45 0 -79.5 -26.5t-50.5 -69.5v-322h-165v583h-95v102h95v53h165v-53h119v-102h-119v-103q30 40 75.5 62.5t105.5 22.5
q101 0 160 -61z" />
    <glyph glyph-name="uni0453" unicode="&#x453;" horiz-adv-x="486" 
d="M63 0v553h421v-129h-256v-424h-165zM433 731l-117 -125l-115 11l77 150z" />
    <glyph glyph-name="uni0454" unicode="&#x454;" horiz-adv-x="570" 
d="M489 174l65 -116q-54 -39 -103.5 -54t-113.5 -15q-84 0 -152.5 35.5t-108 101t-39.5 151.5q0 85 41 150.5t109.5 101.5t149.5 36q63 0 115.5 -16.5t101.5 -53.5l-67 -119q-36 26 -67.5 37.5t-67.5 11.5q-51 0 -87.5 -24t-51.5 -69h181v-107h-182q14 -46 51.5 -71.5
t89.5 -25.5q69 0 136 46z" />
    <glyph glyph-name="uni0455" unicode="&#x455;" horiz-adv-x="542" 
d="M135.5 0.5q-57.5 12.5 -111.5 37.5l24 135q53 -26 111.5 -39.5t114.5 -13.5q39 0 62 9.5t23 34.5q0 21 -23.5 32.5t-87.5 22.5q-81 13 -128 34t-68 53.5t-21 80.5q1 88 70 133t173 45q105 0 211 -40l-21 -135q-42 20 -95.5 32t-104.5 12q-37 0 -55 -8.5t-19 -28.5
q0 -18 21 -28.5t82 -21.5q123 -23 173.5 -64.5t50.5 -113.5q-1 -89 -71.5 -135t-181.5 -46q-71 0 -128.5 12.5z" />
    <glyph glyph-name="uni0456" unicode="&#x456;" horiz-adv-x="291" 
d="M228 0h-165v553h165v-553zM231 605h-171v129h171v-129z" />
    <glyph glyph-name="uni0457" unicode="&#x457;" horiz-adv-x="291" 
d="M228 0h-165v553h165v-553zM118 605h-108v129h108v-129zM280 605h-108v129h108v-129z" />
    <glyph glyph-name="uni0458" unicode="&#x458;" horiz-adv-x="302" 
d="M-39 -48h51q28 0 44.5 16.5t16.5 46.5v538h166v-538q0 -98 -58 -147.5t-148 -49.5q-40 0 -74 9zM241 605h-171v129h171v-129z" />
    <glyph glyph-name="uni0459" unicode="&#x459;" horiz-adv-x="925" 
d="M623 415q122 0 193.5 -56t71.5 -153q0 -96 -68 -151t-190 -55h-230v424h-158l-4 -183q-1 -96 -26.5 -148.5t-75 -72.5t-133.5 -20v120q36 1 53 30t18 99l6 304h479v-138h64zM625 122q49 0 76 22t27 63q0 40 -27 62.5t-76 22.5h-66v-170h66z" />
    <glyph glyph-name="uni045A" unicode="&#x45a;" horiz-adv-x="977" 
d="M684 379q118 0 187 -48t69 -135q0 -92 -65 -144t-185 -52h-238v244h-224v-244h-165v554h165v-178h224v177h166v-174h66zM686 132q45 0 70.5 15t25.5 44t-25.5 46t-71.5 17h-67v-122h68z" />
    <glyph glyph-name="uni045B" unicode="&#x45b;" horiz-adv-x="702" 
d="M588.5 504q58.5 -61 58.5 -169v-335h-165v304q0 114 -105 114q-45 0 -79.5 -26.5t-50.5 -69.5v-322h-165v583h-94v102h94v53h165v-53h119v-102h-119v-104q30 40 76 63t106 23q101 0 159.5 -61z" />
    <glyph glyph-name="uni045C" unicode="&#x45c;" horiz-adv-x="646" 
d="M630 0h-180l-139 203h-83v-203h-165v554h165v-206h82l124 206h178l-189 -264zM482 731l-117 -125l-115 11l77 150z" />
    <glyph glyph-name="uni045D" unicode="&#x45d;" horiz-adv-x="689" 
d="M626 553v-553h-165v302l-270 -302h-128v553h166v-295l265 295h132zM409 617l-115 -11l-117 125l156 36z" />
    <glyph glyph-name="uni045E" unicode="&#x45e;" horiz-adv-x="659" 
d="M103.5 -173q-40.5 10 -65.5 23l38 114q45 -18 86 -18q31 0 48 12.5t30 42.5l4 7l-229 545h177l137 -371h1l136 371h178l-243 -586q-34 -82 -83 -116t-136 -34q-38 0 -78.5 10zM497 742q0 -68 -43.5 -107t-124.5 -39q-80 0 -123.5 39t-43.5 107h120q0 -28 11.5 -41.5
t35.5 -13.5q25 0 36.5 13.5t11.5 41.5h120z" />
    <glyph glyph-name="uni045F" unicode="&#x45f;" horiz-adv-x="675" 
d="M447 125v428h165v-553h-193v-122h-165v122h-191v553h165v-428h219z" />
    <glyph glyph-name="uni0474" unicode="&#x474;" horiz-adv-x="779" 
d="M306 0l-297 700h181l199 -499h5l110 279q42 115 112.5 179.5t155.5 64.5v-172q-40 -1 -69.5 -40t-54.5 -98l-171 -414h-171z" />
    <glyph glyph-name="uni0474" unicode="&#x475;" horiz-adv-x="779" 
d="M306 0l-297 700h181l199 -499h5l110 279q42 115 112.5 179.5t155.5 64.5v-172q-40 -1 -69.5 -40t-54.5 -98l-171 -414h-171z" />
    <glyph glyph-name="uni0490" unicode="&#x490;" horiz-adv-x="627" 
d="M435 700v131h172v-277h-361v-554h-170v700h359z" />
    <glyph glyph-name="uni0491" unicode="&#x491;" horiz-adv-x="486" 
d="M324 553v109h160v-238h-256v-424h-165v553h261z" />
    <glyph glyph-name="uni04D9" unicode="&#x4d9;" horiz-adv-x="650" 
d="M462.5 527q70.5 -37 110.5 -103t40 -148t-38 -147.5t-106 -102.5t-157 -37q-80 0 -142 34t-97 93.5t-35 133.5q0 33 7 76h401q-12 51 -50.5 78.5t-97.5 27.5q-41 0 -72.5 -12.5t-57.5 -41.5l-98 86q93 100 234 100q88 0 158.5 -37zM401.5 148q33.5 27 44.5 77h-250
q7 -51 38.5 -77.5t80.5 -26.5q53 0 86.5 27z" />
    <glyph glyph-name="uni1E0C" unicode="&#x1e0c;" horiz-adv-x="826" 
d="M76 0v700h311q117 0 205 -43t136 -122t48 -184q0 -106 -48 -185.5t-136 -122.5t-205 -43h-311zM379 147q102 0 160.5 54t58.5 149t-58.5 149t-160.5 54h-131v-406h131zM264 -173v130h171v-130h-171z" />
    <glyph glyph-name="uni1E0D" unicode="&#x1e0d;" horiz-adv-x="717" 
d="M174.5 25q-60.5 37 -96 103.5t-35.5 150.5q0 83 35 148.5t95.5 101.5t135.5 36q113 0 180 -73v246h164v-738h-164v62q-68 -74 -181 -74q-73 0 -133.5 37zM450 172q39 42 39 104q0 67 -39 107t-104 40q-61 0 -99.5 -40.5t-38.5 -104.5q0 -67 38 -107.5t100 -40.5
q65 0 104 42zM273 -173v130h171v-130h-171z" />
    <glyph glyph-name="uni1E0E" unicode="&#x1e0e;" horiz-adv-x="826" 
d="M76 0v700h311q117 0 205 -43t136 -122t48 -184q0 -106 -48 -185.5t-136 -122.5t-205 -43h-311zM379 147q102 0 160.5 54t58.5 149t-58.5 149t-160.5 54h-131v-406h131zM522 -153h-347v102h347v-102z" />
    <glyph glyph-name="uni1E0F" unicode="&#x1e0f;" horiz-adv-x="717" 
d="M174.5 25q-60.5 37 -96 103.5t-35.5 150.5q0 83 35 148.5t95.5 101.5t135.5 36q113 0 180 -73v246h164v-738h-164v62q-68 -74 -181 -74q-73 0 -133.5 37zM450 172q39 42 39 104q0 67 -39 107t-104 40q-61 0 -99.5 -40.5t-38.5 -104.5q0 -67 38 -107.5t100 -40.5
q65 0 104 42zM531 -153h-347v102h347v-102z" />
    <glyph glyph-name="uni1E20" unicode="&#x1e20;" horiz-adv-x="778" 
d="M497 381h233l-1 -301q-64 -42 -142 -67t-157 -25q-109 0 -196 46.5t-136 129t-49 185.5q0 111 53.5 193t142.5 126t194 44q141 0 263 -74l-67 -134q-94 59 -194 59q-61 0 -110 -25t-77.5 -73.5t-28.5 -115.5q0 -98 58 -155.5t154 -57.5q46 0 73 7.5t56 22.5v88h-69v127z
M614 759h-347v102h347v-102z" />
    <glyph glyph-name="uni1E21" unicode="&#x1e21;" horiz-adv-x="647" 
d="M376 149q126 1 185 -39t59 -113q0 -84 -81 -132t-235 -48q-127 0 -193.5 36.5t-66.5 105.5q0 30 18.5 55t48.5 41q-24 15 -36.5 37.5t-12.5 48.5q0 33 18 59t47 42q-65 48 -65 137q0 87 68 137t187 50q72 0 116 -20l148 45l31 -111l-75 -11q18 -17 28 -40.5t10 -49.5
q0 -88 -68 -139t-188 -51q-52 0 -94 9q-11 -11 -11 -26q0 -14 11 -18.5t33 -4.5h118zM247.5 429q-24.5 -17 -24.5 -49q0 -35 24 -53.5t71 -18.5q46 0 70.5 18t24.5 53q0 33 -24 50t-71 17q-46 0 -70.5 -17zM425 -46.5q34 11.5 34 40.5q0 23 -26 30.5t-86 7.5h-122
q-24 -22 -24 -44q0 -27 28.5 -36.5t86.5 -9.5q75 0 109 11.5zM494 621h-347v102h347v-102z" />
    <glyph glyph-name="uni1E24" unicode="&#x1e24;" horiz-adv-x="811" 
d="M562 418v282h173v-700h-173v275h-313v-275h-173v700h173v-282h313zM320 -173v130h171v-130h-171z" />
    <glyph glyph-name="uni1E25" unicode="&#x1e25;" horiz-adv-x="683" 
d="M569.5 504q58.5 -61 58.5 -169v-335h-165v304q0 114 -105 114q-45 0 -79.5 -27t-50.5 -71v-320h-165v738h165v-259q30 40 76 63t106 23q101 0 159.5 -61zM260 -173v130h171v-130h-171z" />
    <glyph glyph-name="uni1E2A" unicode="&#x1e2a;" horiz-adv-x="811" 
d="M562 418v282h173v-700h-173v275h-313v-275h-173v700h173v-282h313zM548 -31q0 -52 -37 -81.5t-104 -29.5q-68 0 -104.5 29.5t-36.5 81.5l101 1q0 -22 9.5 -32t30.5 -10q40 0 40 42z" />
    <glyph glyph-name="uni1E2B" unicode="&#x1e2b;" horiz-adv-x="683" 
d="M569.5 504q58.5 -61 58.5 -169v-335h-165v304q0 114 -105 114q-45 0 -79.5 -27t-50.5 -71v-320h-165v738h165v-259q30 40 76 63t106 23q101 0 159.5 -61zM487 -31q0 -52 -37 -81.5t-104 -29.5q-68 0 -104.5 29.5t-36.5 81.5l101 1q0 -22 9.5 -32t30.5 -10q40 0 40 42z
" />
    <glyph glyph-name="uni1E36" unicode="&#x1e36;" horiz-adv-x="624" 
d="M607 0h-531v700h170v-554h361v-146zM228 -173v130h171v-130h-171z" />
    <glyph glyph-name="uni1E37" unicode="&#x1e37;" horiz-adv-x="291" 
d="M228 0h-165v738h165v-738zM60 -173v130h171v-130h-171z" />
    <glyph glyph-name="uni1E38" unicode="&#x1e38;" horiz-adv-x="624" 
d="M607 0h-531v700h170v-554h361v-146zM228 -173v130h171v-130h-171zM359 759h-347v102h347v-102z" />
    <glyph glyph-name="uni1E39" unicode="&#x1e39;" horiz-adv-x="291" 
d="M228 0h-165v738h165v-738zM60 -173v130h171v-130h-171zM318 797h-347v102h347v-102z" />
    <glyph glyph-name="uni1E3A" unicode="&#x1e3a;" horiz-adv-x="624" 
d="M607 0h-531v700h170v-554h361v-146zM486 -153h-347v102h347v-102z" />
    <glyph glyph-name="uni1E3B" unicode="&#x1e3b;" horiz-adv-x="291" 
d="M228 0h-165v738h165v-738zM317 -153h-347v102h347v-102z" />
    <glyph glyph-name="uni1E42" unicode="&#x1e42;" horiz-adv-x="927" 
d="M667 700h174l40 -700h-172l-22 398l-179 -398h-87l-180 398l-22 -398h-173l40 700h176l202 -445zM378 -173v130h171v-130h-171z" />
    <glyph glyph-name="uni1E43" unicode="&#x1e43;" horiz-adv-x="1023" 
d="M917.5 504.5q50.5 -60.5 50.5 -167.5v-337h-165v305q0 55 -22.5 84.5t-63.5 29.5t-72.5 -26t-46.5 -67v-326h-165v305q0 114 -84 114q-41 0 -73 -27t-48 -69v-323h-165v553h165v-71q29 39 73 61t101 22q60 0 102.5 -25t66.5 -71q33 44 85.5 70t114.5 26q96 0 146.5 -60.5
zM437 -173v130h171v-130h-171z" />
    <glyph glyph-name="uni1E44" unicode="&#x1e44;" horiz-adv-x="832" 
d="M248 0h-172v700h159l349 -427v427h172v-700h-154l-354 434v-434zM503 748h-171v125h171v-125z" />
    <glyph glyph-name="uni1E45" unicode="&#x1e45;" horiz-adv-x="683" 
d="M569.5 504q58.5 -61 58.5 -169v-335h-165v304q0 114 -105 114q-45 0 -79.5 -27t-50.5 -71v-320h-165v553h165v-74q30 40 76 63t106 23q101 0 159.5 -61zM428 605h-171v129h171v-129z" />
    <glyph glyph-name="uni1E46" unicode="&#x1e46;" horiz-adv-x="832" 
d="M248 0h-172v700h159l349 -427v427h172v-700h-154l-354 434v-434zM332 -173v130h171v-130h-171z" />
    <glyph glyph-name="uni1E47" unicode="&#x1e47;" horiz-adv-x="683" 
d="M569.5 504q58.5 -61 58.5 -169v-335h-165v304q0 114 -105 114q-45 0 -79.5 -27t-50.5 -71v-320h-165v553h165v-74q30 40 76 63t106 23q101 0 159.5 -61zM257 -173v130h171v-130h-171z" />
    <glyph glyph-name="uni1E48" unicode="&#x1e48;" horiz-adv-x="832" 
d="M248 0h-172v700h159l349 -427v427h172v-700h-154l-354 434v-434zM589 -153h-347v102h347v-102z" />
    <glyph glyph-name="uni1E49" unicode="&#x1e49;" horiz-adv-x="683" 
d="M569.5 504q58.5 -61 58.5 -169v-335h-165v304q0 114 -105 114q-45 0 -79.5 -27t-50.5 -71v-320h-165v553h165v-74q30 40 76 63t106 23q101 0 159.5 -61zM514 -153h-347v102h347v-102z" />
    <glyph glyph-name="uni1E5A" unicode="&#x1e5a;" horiz-adv-x="724" 
d="M506 0l-164 216h-94v-216h-172v700h304q146 0 228.5 -64.5t82.5 -178.5q0 -81 -42 -137.5t-121 -82.5l178 -237h-200zM248 557v-203h127q71 0 107.5 24t36.5 76t-37 77.5t-107 25.5h-127zM275 -173v130h171v-130h-171z" />
    <glyph glyph-name="uni1E5B" unicode="&#x1e5b;" horiz-adv-x="456" 
d="M453 556l-18 -147h-73q-62 0 -98 -50.5t-36 -132.5v-226h-165v553h165v-84q47 95 156 95q36 0 69 -8zM63 -173v130h171v-130h-171z" />
    <glyph glyph-name="uni1E5C" unicode="&#x1e5c;" horiz-adv-x="724" 
d="M506 0l-164 216h-94v-216h-172v700h304q146 0 228.5 -64.5t82.5 -178.5q0 -81 -42 -137.5t-121 -82.5l178 -237h-200zM248 557v-203h127q71 0 107.5 24t36.5 76t-37 77.5t-107 25.5h-127zM275 -173v130h171v-130h-171zM535 759h-347v102h347v-102z" />
    <glyph glyph-name="uni1E5D" unicode="&#x1e5d;" horiz-adv-x="456" 
d="M453 556l-18 -147h-73q-62 0 -98 -50.5t-36 -132.5v-226h-165v553h165v-84q47 95 156 95q36 0 69 -8zM63 -173v130h171v-130h-171zM382 616h-347v102h347v-102z" />
    <glyph glyph-name="uni1E5E" unicode="&#x1e5e;" horiz-adv-x="724" 
d="M506 0l-164 216h-94v-216h-172v700h304q146 0 228.5 -64.5t82.5 -178.5q0 -81 -42 -137.5t-121 -82.5l178 -237h-200zM248 557v-203h127q71 0 107.5 24t36.5 76t-37 77.5t-107 25.5h-127zM532 -153h-347v102h347v-102z" />
    <glyph glyph-name="uni1E5F" unicode="&#x1e5f;" horiz-adv-x="456" 
d="M453 556l-18 -147h-73q-62 0 -98 -50.5t-36 -132.5v-226h-165v553h165v-84q47 95 156 95q36 0 69 -8zM321 -153h-347v102h347v-102z" />
    <glyph glyph-name="uni1E60" unicode="&#x1e60;" horiz-adv-x="669" 
d="M170.5 2.5q-75.5 15.5 -134.5 46.5l14 146q54 -28 134.5 -45.5t144.5 -17.5q62 0 96.5 14.5t34.5 53.5q0 28 -15 43.5t-43 24.5t-85 20q-94 16 -152.5 39.5t-89 64t-30.5 103.5q0 69 40.5 118t108.5 74t150 25q141 0 255 -52l-21 -146q-128 54 -234 54q-57 0 -86.5 -14
t-29.5 -52q0 -22 12 -35t39.5 -22t81.5 -19q143 -25 212 -74.5t69 -144.5q0 -71 -41.5 -120.5t-112.5 -74.5t-159 -25q-83 0 -158.5 15.5zM423 748h-171v125h171v-125z" />
    <glyph glyph-name="uni1E61" unicode="&#x1e61;" horiz-adv-x="542" 
d="M135.5 0.5q-57.5 12.5 -111.5 37.5l24 135q53 -26 111.5 -39.5t114.5 -13.5q39 0 62 9.5t23 34.5q0 21 -23.5 32.5t-87.5 22.5q-81 13 -128 34t-68 53.5t-21 80.5q1 88 70 133t173 45q105 0 211 -40l-21 -135q-42 20 -95.5 32t-104.5 12q-37 0 -55 -8.5t-19 -28.5
q0 -18 21 -28.5t82 -21.5q123 -23 173.5 -64.5t50.5 -113.5q-1 -89 -71.5 -135t-181.5 -46q-71 0 -128.5 12.5zM354 605h-171v129h171v-129z" />
    <glyph glyph-name="uni1E62" unicode="&#x1e62;" horiz-adv-x="669" 
d="M170.5 2.5q-75.5 15.5 -134.5 46.5l14 146q54 -28 134.5 -45.5t144.5 -17.5q62 0 96.5 14.5t34.5 53.5q0 28 -15 43.5t-43 24.5t-85 20q-94 16 -152.5 39.5t-89 64t-30.5 103.5q0 69 40.5 118t108.5 74t150 25q141 0 255 -52l-21 -146q-128 54 -234 54q-57 0 -86.5 -14
t-29.5 -52q0 -22 12 -35t39.5 -22t81.5 -19q143 -25 212 -74.5t69 -144.5q0 -71 -41.5 -120.5t-112.5 -74.5t-159 -25q-83 0 -158.5 15.5zM252 -173v130h171v-130h-171z" />
    <glyph glyph-name="uni1E63" unicode="&#x1e63;" horiz-adv-x="542" 
d="M135.5 0.5q-57.5 12.5 -111.5 37.5l24 135q53 -26 111.5 -39.5t114.5 -13.5q39 0 62 9.5t23 34.5q0 21 -23.5 32.5t-87.5 22.5q-81 13 -128 34t-68 53.5t-21 80.5q1 88 70 133t173 45q105 0 211 -40l-21 -135q-42 20 -95.5 32t-104.5 12q-37 0 -55 -8.5t-19 -28.5
q0 -18 21 -28.5t82 -21.5q123 -23 173.5 -64.5t50.5 -113.5q-1 -89 -71.5 -135t-181.5 -46q-71 0 -128.5 12.5zM183 -173v130h171v-130h-171z" />
    <glyph glyph-name="uni1E6C" unicode="&#x1e6c;" horiz-adv-x="663" 
d="M21 700h621v-147h-225v-553h-173v553h-223v147zM246 -173v130h171v-130h-171z" />
    <glyph glyph-name="uni1E6D" unicode="&#x1e6d;" horiz-adv-x="486" 
d="M153.5 37.5q-51.5 49.5 -51.5 143.5v236h-72v74l172 183h65v-121h169v-136h-169v-213q0 -35 17.5 -54t48.5 -19q45 0 91 20l30 -125q-34 -19 -75 -28.5t-79 -9.5q-95 0 -146.5 49.5zM181 -174v130h171v-130h-171z" />
    <glyph glyph-name="uni1E6E" unicode="&#x1e6e;" horiz-adv-x="663" 
d="M21 700h621v-147h-225v-553h-173v553h-223v147zM504 -153h-347v102h347v-102z" />
    <glyph glyph-name="uni1E6F" unicode="&#x1e6f;" horiz-adv-x="486" 
d="M153.5 37.5q-51.5 49.5 -51.5 143.5v236h-72v74l172 183h65v-121h169v-136h-169v-213q0 -35 17.5 -54t48.5 -19q45 0 91 20l30 -125q-34 -19 -75 -28.5t-79 -9.5q-95 0 -146.5 49.5zM438 -154h-347v102h347v-102z" />
    <glyph glyph-name="Wgrave" unicode="&#x1e80;" horiz-adv-x="1116" 
d="M778 212l148 488h181l-226 -700h-180l-142 428l-143 -428h-180l-227 700h182l148 -488l142 488h155zM628 750l-129 -7l-107 107l148 30z" />
    <glyph glyph-name="wgrave" unicode="&#x1e81;" horiz-adv-x="947" 
d="M648 191l108 362h174l-188 -553h-169l-99 336l-100 -336h-168l-189 553h174l108 -362l103 362h142zM538 617l-115 -11l-117 125l156 36z" />
    <glyph glyph-name="Wacute" unicode="&#x1e82;" horiz-adv-x="1116" 
d="M778 212l148 488h181l-226 -700h-180l-142 428l-143 -428h-180l-227 700h182l148 -488l142 488h155zM725 850l-107 -107l-129 7l88 130z" />
    <glyph glyph-name="wacute" unicode="&#x1e83;" horiz-adv-x="947" 
d="M648 191l108 362h174l-188 -553h-169l-99 336l-100 -336h-168l-189 553h174l108 -362l103 362h142zM633 731l-117 -125l-115 11l77 150z" />
    <glyph glyph-name="Wdieresis" unicode="&#x1e84;" horiz-adv-x="1116" 
d="M778 212l148 488h181l-226 -700h-180l-142 428l-143 -428h-180l-227 700h182l148 -488l142 488h155zM540 741h-128v125h128v-125zM707 741h-127v125h127v-125z" />
    <glyph glyph-name="wdieresis" unicode="&#x1e85;" horiz-adv-x="947" 
d="M648 191l108 362h174l-188 -553h-169l-99 336l-100 -336h-168l-189 553h174l108 -362l103 362h142zM446 605h-108v129h108v-129zM608 605h-108v129h108v-129z" />
    <glyph glyph-name="uni1E8E" unicode="&#x1e8e;" horiz-adv-x="743" 
d="M552 700h187l-281 -461v-239h-173v242l-281 458h187l181 -318zM457 748h-171v125h171v-125z" />
    <glyph glyph-name="uni1E8F" unicode="&#x1e8f;" horiz-adv-x="659" 
d="M329 177l140 376h175l-233 -553l-71 -171h-170l77 175l-232 549h174zM415 605h-171v129h171v-129z" />
    <glyph glyph-name="uni1E92" unicode="&#x1e92;" horiz-adv-x="688" 
d="M659 0h-630v111l386 442h-375v147h613v-110l-387 -443h393v-147zM259 -173v130h171v-130h-171z" />
    <glyph glyph-name="uni1E93" unicode="&#x1e93;" horiz-adv-x="575" 
d="M543 0h-510v99l284 316h-276v138h497v-99l-286 -315h291v-139zM199 -173v130h171v-130h-171z" />
    <glyph glyph-name="uni1E97" unicode="&#x1e97;" horiz-adv-x="486" 
d="M153.5 37.5q-51.5 49.5 -51.5 143.5v236h-72v74l172 183h65v-121h169v-136h-169v-213q0 -35 17.5 -54t48.5 -19q45 0 91 20l30 -125q-34 -19 -75 -28.5t-79 -9.5q-95 0 -146.5 49.5zM186 711h-108v129h108v-129zM348 711h-108v129h108v-129z" />
    <glyph glyph-name="uni1E9E" unicode="&#x1e9e;" horiz-adv-x="796" 
d="M613 408q156 -54 156 -200q0 -103 -70 -161.5t-189 -58.5q-67 0 -128 16.5t-97 45.5l35 131q36 -23 82 -36.5t90 -13.5q49 0 78 21.5t29 56.5q0 44 -46 65.5t-125 33.5l67 240q-76 22 -133 22q-60 0 -95 -31t-35 -81v-458h-173v472q0 70 37.5 124.5t106.5 85t160 30.5
q70 0 155 -18.5t168 -53.5z" />
    <glyph glyph-name="uni1EA0" unicode="&#x1ea0;" horiz-adv-x="805" 
d="M796 0h-181l-46 115h-336l-46 -115h-178l290 700h206zM402 533l-115 -286h229zM312 -173v130h171v-130h-171z" />
    <glyph glyph-name="uni1EA1" unicode="&#x1ea1;" horiz-adv-x="621" 
d="M498 501.5q68 -63.5 68 -178.5v-323h-165v70q-25 -36 -72 -59t-110 -23q-57 0 -101 22t-68 62t-24 92q0 80 55 127t165 47q79 0 154 -7v4q0 94 -128 94q-93 0 -170 -30l-16 136q98 30 204 30q140 0 208 -63.5zM364 147.5q32 29.5 36 78.5v14q-48 6 -107 6
q-109 0 -109 -67q0 -30 24 -45.5t67 -15.5q57 0 89 29.5zM182 -172v130h171v-130h-171z" />
    <glyph glyph-name="uni1EA2" unicode="&#x1ea2;" horiz-adv-x="805" 
d="M796 0h-181l-46 115h-336l-46 -115h-178l290 700h206zM402 533l-115 -286h229zM349 777q13 13 20 24t7 25q0 11 -7 18.5t-19 7.5t-27 -9l-13 76q47 24 88 24q40 0 63.5 -21.5t23.5 -51.5q0 -38 -21.5 -69.5t-47.5 -49.5z" />
    <glyph glyph-name="uni1EA3" unicode="&#x1ea3;" horiz-adv-x="621" 
d="M498 501.5q68 -63.5 68 -178.5v-323h-165v70q-25 -36 -72 -59t-110 -23q-57 0 -101 22t-68 62t-24 92q0 80 55 127t165 47q79 0 154 -7v4q0 94 -128 94q-93 0 -170 -30l-16 136q98 30 204 30q140 0 208 -63.5zM364 147.5q32 29.5 36 78.5v14q-48 6 -107 6
q-109 0 -109 -67q0 -30 24 -45.5t67 -15.5q57 0 89 29.5zM244 631q13 13 20 24t7 25q0 11 -7 18.5t-19 7.5t-27 -9l-13 76q47 24 88 24q40 0 63.5 -21.5t23.5 -51.5q0 -38 -21.5 -69.5t-47.5 -49.5z" />
    <glyph glyph-name="uni1EA4" unicode="&#x1ea4;" horiz-adv-x="805" 
d="M796 0h-181l-46 115h-336l-46 -115h-178l290 700h206zM402 533l-115 -286h229zM536 835l66 95l102 -38l-91 -74zM481 894l89 -146l-127 -7l-46 85l-46 -85l-127 7l89 146h168z" />
    <glyph glyph-name="uni1EA5" unicode="&#x1ea5;" horiz-adv-x="621" 
d="M498 501.5q68 -63.5 68 -178.5v-323h-165v70q-25 -36 -72 -59t-110 -23q-57 0 -101 22t-68 62t-24 92q0 80 55 127t165 47q79 0 154 -7v4q0 94 -128 94q-93 0 -170 -30l-16 136q98 30 204 30q140 0 208 -63.5zM364 147.5q32 29.5 36 78.5v14q-48 6 -107 6
q-109 0 -109 -67q0 -30 24 -45.5t67 -15.5q57 0 89 29.5zM432 689l66 95l102 -38l-91 -74zM377 748l89 -146l-127 -7l-46 85l-46 -85l-127 7l89 146h168z" />
    <glyph glyph-name="uni1EA6" unicode="&#x1ea6;" horiz-adv-x="805" 
d="M796 0h-181l-46 115h-336l-46 -115h-178l290 700h206zM402 533l-115 -286h229zM117 906l101 38l66 -95l-77 -18zM475 884l89 -146l-127 -8l-45 85l-46 -85l-128 8l90 146h167z" />
    <glyph glyph-name="uni1EA7" unicode="&#x1ea7;" horiz-adv-x="621" 
d="M498 501.5q68 -63.5 68 -178.5v-323h-165v70q-25 -36 -72 -59t-110 -23q-57 0 -101 22t-68 62t-24 92q0 80 55 127t165 47q79 0 154 -7v4q0 94 -128 94q-93 0 -170 -30l-16 136q98 30 204 30q140 0 208 -63.5zM364 147.5q32 29.5 36 78.5v14q-48 6 -107 6
q-109 0 -109 -67q0 -30 24 -45.5t67 -15.5q57 0 89 29.5zM18 770l101 38l66 -95l-77 -18zM376 748l89 -146l-127 -8l-45 85l-46 -85l-128 8l90 146h167z" />
    <glyph glyph-name="uni1EA8" unicode="&#x1ea8;" horiz-adv-x="805" 
d="M796 0h-181l-46 115h-336l-46 -115h-178l290 700h206zM402 533l-115 -286h229zM512 946q35 18 65 18t47.5 -16t17.5 -38q0 -28 -16 -52t-35 -36l-50 19q10 10 15 17.5t5 18.5q0 8 -5 13.5t-14 5.5q-10 0 -20 -7zM481 894l89 -146l-127 -8l-46 86l-46 -86l-127 8l89 146
h168z" />
    <glyph glyph-name="uni1EA9" unicode="&#x1ea9;" horiz-adv-x="621" 
d="M498 501.5q68 -63.5 68 -178.5v-323h-165v70q-25 -36 -72 -59t-110 -23q-57 0 -101 22t-68 62t-24 92q0 80 55 127t165 47q79 0 154 -7v4q0 94 -128 94q-93 0 -170 -30l-16 136q98 30 204 30q140 0 208 -63.5zM364 147.5q32 29.5 36 78.5v14q-48 6 -107 6
q-109 0 -109 -67q0 -30 24 -45.5t67 -15.5q57 0 89 29.5zM408 800q35 18 65 18t47.5 -16t17.5 -38q0 -28 -16 -52t-35 -36l-50 19q10 10 15 17.5t5 18.5q0 8 -5 13.5t-14 5.5q-10 0 -20 -7zM377 748l89 -146l-127 -8l-46 86l-46 -86l-127 8l89 146h168z" />
    <glyph glyph-name="uni1EAA" unicode="&#x1eaa;" horiz-adv-x="805" 
d="M796 0h-181l-46 115h-336l-46 -115h-178l290 700h206zM402 533l-115 -286h229zM316 930.5q-10 -10.5 -10 -27.5l-65 17q0 47 24.5 75t63.5 28q24 0 45.5 -7.5t25.5 -8.5q29 -12 45 -12t26 10t10 27l65 -16q0 -48 -24 -75.5t-63 -27.5q-24 0 -45.5 7.5t-25.5 8.5
q-29 12 -45 12q-17 0 -27 -10.5zM481 892l90 -145l-128 -8l-45 85l-46 -85l-127 8l89 145h167z" />
    <glyph glyph-name="uni1EAB" unicode="&#x1eab;" horiz-adv-x="621" 
d="M498 501.5q68 -63.5 68 -178.5v-323h-165v70q-25 -36 -72 -59t-110 -23q-57 0 -101 22t-68 62t-24 92q0 80 55 127t165 47q79 0 154 -7v4q0 94 -128 94q-93 0 -170 -30l-16 136q98 30 204 30q140 0 208 -63.5zM364 147.5q32 29.5 36 78.5v14q-48 6 -107 6
q-109 0 -109 -67q0 -30 24 -45.5t67 -15.5q57 0 89 29.5zM211 784.5q-10 -10.5 -10 -27.5l-65 17q0 47 24.5 75t63.5 28q24 0 45.5 -7.5t25.5 -8.5q29 -12 45 -12t26 10t10 27l65 -16q0 -48 -24 -75.5t-63 -27.5q-24 0 -45.5 7.5t-25.5 8.5q-29 12 -45 12q-17 0 -27 -10.5z
M376 746l90 -145l-128 -8l-45 85l-46 -85l-127 8l89 145h167z" />
    <glyph glyph-name="uni1EAC" unicode="&#x1eac;" horiz-adv-x="805" 
d="M796 0h-181l-46 115h-336l-46 -115h-178l290 700h206zM402 533l-115 -286h229zM312 -173v130h171v-130h-171zM485 877l93 -132l-133 -6l-47 77l-48 -77l-133 6l93 132h175z" />
    <glyph glyph-name="uni1EAD" unicode="&#x1ead;" horiz-adv-x="621" 
d="M498 501.5q68 -63.5 68 -178.5v-323h-165v70q-25 -36 -72 -59t-110 -23q-57 0 -101 22t-68 62t-24 92q0 80 55 127t165 47q79 0 154 -7v4q0 94 -128 94q-93 0 -170 -30l-16 136q98 30 204 30q140 0 208 -63.5zM364 147.5q32 29.5 36 78.5v14q-48 6 -107 6
q-109 0 -109 -67q0 -30 24 -45.5t67 -15.5q57 0 89 29.5zM182 -172v130h171v-130h-171zM377 748l89 -146l-127 -7l-46 85l-46 -85l-127 7l89 146h168z" />
    <glyph glyph-name="uni1EAE" unicode="&#x1eae;" horiz-adv-x="805" 
d="M796 0h-181l-46 115h-336l-46 -115h-178l290 700h206zM402 533l-115 -286h229zM409 1026l123 -31l-94 -98l-92 10zM565 882q0 -68 -43.5 -107t-124.5 -39q-80 0 -123.5 39t-43.5 107h120q0 -28 11.5 -41.5t35.5 -13.5q25 0 36.5 13.5t11.5 41.5h120z" />
    <glyph glyph-name="uni1EAF" unicode="&#x1eaf;" horiz-adv-x="621" 
d="M498 501.5q68 -63.5 68 -178.5v-323h-165v70q-25 -36 -72 -59t-110 -23q-57 0 -101 22t-68 62t-24 92q0 80 55 127t165 47q79 0 154 -7v4q0 94 -128 94q-93 0 -170 -30l-16 136q98 30 204 30q140 0 208 -63.5zM364 147.5q32 29.5 36 78.5v14q-48 6 -107 6
q-109 0 -109 -67q0 -30 24 -45.5t67 -15.5q57 0 89 29.5zM305 887l123 -31l-94 -98l-92 10zM461 743q0 -68 -43.5 -107t-124.5 -39q-80 0 -123.5 39t-43.5 107h120q0 -28 11.5 -41.5t35.5 -13.5q25 0 36.5 13.5t11.5 41.5h120z" />
    <glyph glyph-name="uni1EB0" unicode="&#x1eb0;" horiz-adv-x="805" 
d="M796 0h-181l-46 115h-336l-46 -115h-178l290 700h206zM402 533l-115 -286h229zM449 907l-92 -9l-95 99l124 29zM273 776.5q-43 38.5 -43 106.5l120 1q0 -28 11.5 -41.5t35.5 -13.5q25 0 36.5 13.5t11.5 41.5l120 -1q0 -68 -43.5 -106.5t-124.5 -38.5t-124 38.5z" />
    <glyph glyph-name="uni1EB1" unicode="&#x1eb1;" horiz-adv-x="621" 
d="M498 501.5q68 -63.5 68 -178.5v-323h-165v70q-25 -36 -72 -59t-110 -23q-57 0 -101 22t-68 62t-24 92q0 80 55 127t165 47q79 0 154 -7v4q0 94 -128 94q-93 0 -170 -30l-16 136q98 30 204 30q140 0 208 -63.5zM364 147.5q32 29.5 36 78.5v14q-48 6 -107 6
q-109 0 -109 -67q0 -30 24 -45.5t67 -15.5q57 0 89 29.5zM253 759l-95 98l124 29l63 -118zM246 744q0 -28 11.5 -41.5t35.5 -13.5q25 0 36.5 13.5t11.5 41.5l120 -1q0 -68 -43.5 -106.5t-124.5 -38.5t-124 38.5t-43 106.5z" />
    <glyph glyph-name="uni1EB2" unicode="&#x1eb2;" horiz-adv-x="805" 
d="M796 0h-181l-46 115h-336l-46 -115h-178l290 700h206zM402 533l-115 -286h229zM379 971q-6 6 -16 6t-21 -7l-10 61q39 20 71 20t51.5 -17.5t19.5 -41.5q0 -31 -17.5 -57t-38.5 -40l-55 22q22 20 22 39q0 9 -6 15zM565 889q0 -68 -43.5 -107t-124.5 -39q-80 0 -123.5 39
t-43.5 107h120q0 -28 11.5 -41.5t35.5 -13.5q25 0 36.5 13.5t11.5 41.5h120z" />
    <glyph glyph-name="uni1EB3" unicode="&#x1eb3;" horiz-adv-x="621" 
d="M498 501.5q68 -63.5 68 -178.5v-323h-165v70q-25 -36 -72 -59t-110 -23q-57 0 -101 22t-68 62t-24 92q0 80 55 127t165 47q79 0 154 -7v4q0 94 -128 94q-93 0 -170 -30l-16 136q98 30 204 30q140 0 208 -63.5zM364 147.5q32 29.5 36 78.5v14q-48 6 -107 6
q-109 0 -109 -67q0 -30 24 -45.5t67 -15.5q57 0 89 29.5zM275 825q-6 6 -16 6t-21 -7l-10 61q39 20 71 20t51.5 -17.5t19.5 -41.5q0 -31 -17.5 -57t-38.5 -40l-55 22q22 20 22 39q0 9 -6 15zM461 743q0 -68 -43.5 -107t-124.5 -39q-80 0 -123.5 39t-43.5 107h120
q0 -28 11.5 -41.5t35.5 -13.5q25 0 36.5 13.5t11.5 41.5h120z" />
    <glyph glyph-name="uni1EB4" unicode="&#x1eb4;" horiz-adv-x="805" 
d="M796 0h-181l-46 115h-336l-46 -115h-178l290 700h206zM402 533l-115 -286h229zM318 934.5q-10 -10.5 -10 -26.5l-65 16q0 45 24 72t63 27q30 0 70 -16q31 -11 44 -11q16 0 26 10t10 26l65 -15q0 -46 -24 -72.5t-63 -26.5q-28 0 -70 16q-29 11 -44 11q-16 0 -26 -10.5z
M565 889q0 -68 -43.5 -107t-124.5 -39q-80 0 -123.5 39t-43.5 107h120q0 -28 11.5 -41.5t35.5 -13.5q25 0 36.5 13.5t11.5 41.5h120z" />
    <glyph glyph-name="uni1EB5" unicode="&#x1eb5;" horiz-adv-x="621" 
d="M498 501.5q68 -63.5 68 -178.5v-323h-165v70q-25 -36 -72 -59t-110 -23q-57 0 -101 22t-68 62t-24 92q0 80 55 127t165 47q79 0 154 -7v4q0 94 -128 94q-93 0 -170 -30l-16 136q98 30 204 30q140 0 208 -63.5zM364 147.5q32 29.5 36 78.5v14q-48 6 -107 6
q-109 0 -109 -67q0 -30 24 -45.5t67 -15.5q57 0 89 29.5zM214 788.5q-10 -10.5 -10 -26.5l-65 16q0 45 24 72t63 27q30 0 70 -16q31 -11 44 -11q16 0 26 10t10 26l65 -15q0 -46 -24 -72.5t-63 -26.5q-28 0 -70 16q-29 11 -44 11q-16 0 -26 -10.5zM461 743q0 -68 -43.5 -107
t-124.5 -39q-80 0 -123.5 39t-43.5 107h120q0 -28 11.5 -41.5t35.5 -13.5q25 0 36.5 13.5t11.5 41.5h120z" />
    <glyph glyph-name="uni1EB6" unicode="&#x1eb6;" horiz-adv-x="805" 
d="M796 0h-181l-46 115h-336l-46 -115h-178l290 700h206zM402 533l-115 -286h229zM312 -173v130h171v-130h-171zM565 881q0 -68 -43.5 -107t-124.5 -39q-80 0 -123.5 39t-43.5 107h120q0 -28 11.5 -41.5t35.5 -13.5q25 0 36.5 13.5t11.5 41.5h120z" />
    <glyph glyph-name="uni1EB7" unicode="&#x1eb7;" horiz-adv-x="621" 
d="M498 501.5q68 -63.5 68 -178.5v-323h-165v70q-25 -36 -72 -59t-110 -23q-57 0 -101 22t-68 62t-24 92q0 80 55 127t165 47q79 0 154 -7v4q0 94 -128 94q-93 0 -170 -30l-16 136q98 30 204 30q140 0 208 -63.5zM364 147.5q32 29.5 36 78.5v14q-48 6 -107 6
q-109 0 -109 -67q0 -30 24 -45.5t67 -15.5q57 0 89 29.5zM182 -172v130h171v-130h-171zM461 743q0 -68 -43.5 -107t-124.5 -39q-80 0 -123.5 39t-43.5 107h120q0 -28 11.5 -41.5t35.5 -13.5q25 0 36.5 13.5t11.5 41.5h120z" />
    <glyph glyph-name="uni1EB8" unicode="&#x1eb8;" horiz-adv-x="698" 
d="M245 291v-149h411v-142h-580v700h570v-142h-401v-132h355v-135h-355zM262 -173v130h171v-130h-171z" />
    <glyph glyph-name="uni1EB9" unicode="&#x1eb9;" horiz-adv-x="649" 
d="M203 228q12 -53 52.5 -79.5t103.5 -26.5q38 0 79.5 11t73.5 32l38 -121q-46 -30 -95.5 -43t-109.5 -13q-87 0 -157.5 36.5t-110.5 102.5t-40 150q0 82 38 148t106.5 103t156.5 37q78 0 140.5 -31.5t98 -87t35.5 -124.5q0 -47 -18 -94h-391zM247 404.5
q-33 -27.5 -44 -79.5l247 1q-2 52 -33.5 79t-83.5 27q-53 0 -86 -27.5zM246 -174v130h171v-130h-171z" />
    <glyph glyph-name="uni1EBA" unicode="&#x1eba;" horiz-adv-x="698" 
d="M245 291v-149h411v-142h-580v700h570v-142h-401v-132h355v-135h-355zM298 777q13 13 20 24t7 25q0 11 -7 18.5t-19 7.5t-27 -9l-13 76q47 24 88 24q40 0 63.5 -21.5t23.5 -51.5q0 -38 -21.5 -69.5t-47.5 -49.5z" />
    <glyph glyph-name="uni1EBB" unicode="&#x1ebb;" horiz-adv-x="649" 
d="M203 228q12 -53 52.5 -79.5t103.5 -26.5q38 0 79.5 11t73.5 32l38 -121q-46 -30 -95.5 -43t-109.5 -13q-87 0 -157.5 36.5t-110.5 102.5t-40 150q0 82 38 148t106.5 103t156.5 37q78 0 140.5 -31.5t98 -87t35.5 -124.5q0 -47 -18 -94h-391zM247 404.5
q-33 -27.5 -44 -79.5l247 1q-2 52 -33.5 79t-83.5 27q-53 0 -86 -27.5zM278 630q13 13 20 24t7 25q0 11 -7 18.5t-19 7.5t-27 -9l-13 76q47 24 88 24q40 0 63.5 -21.5t23.5 -51.5q0 -38 -21.5 -69.5t-47.5 -49.5z" />
    <glyph glyph-name="uni1EBC" unicode="&#x1ebc;" horiz-adv-x="698" 
d="M245 291v-149h411v-142h-580v700h570v-142h-401v-132h355v-135h-355zM167 752q0 53 27.5 84.5t72.5 31.5q21 0 40 -5t43 -14q35 -13 50 -13q19 0 31 11.5t12 30.5l75 -18q0 -53 -28 -84.5t-73 -31.5q-21 0 -38.5 5t-42.5 14q-35 13 -52 13q-19 0 -30.5 -11.5t-11.5 -30.5
z" />
    <glyph glyph-name="uni1EBD" unicode="&#x1ebd;" horiz-adv-x="649" 
d="M203 228q12 -53 52.5 -79.5t103.5 -26.5q38 0 79.5 11t73.5 32l38 -121q-46 -30 -95.5 -43t-109.5 -13q-87 0 -157.5 36.5t-110.5 102.5t-40 150q0 82 38 148t106.5 103t156.5 37q78 0 140.5 -31.5t98 -87t35.5 -124.5q0 -47 -18 -94h-391zM247 404.5
q-33 -27.5 -44 -79.5l247 1q-2 52 -33.5 79t-83.5 27q-53 0 -86 -27.5zM152 613q0 53 27.5 84.5t72.5 31.5q21 0 40 -5t43 -14q35 -13 50 -13q19 0 31 11.5t12 30.5l75 -18q0 -53 -28 -84.5t-73 -31.5q-21 0 -38.5 5t-42.5 14q-35 13 -52 13q-19 0 -30.5 -11.5t-11.5 -30.5z
" />
    <glyph glyph-name="uni1EBE" unicode="&#x1ebe;" horiz-adv-x="698" 
d="M245 291v-149h411v-142h-580v700h570v-142h-401v-132h355v-135h-355zM486 835l66 95l102 -38l-91 -74zM431 894l89 -146l-127 -7l-46 85l-46 -85l-127 7l89 146h168z" />
    <glyph glyph-name="uni1EBF" unicode="&#x1ebf;" horiz-adv-x="649" 
d="M203 228q12 -53 52.5 -79.5t103.5 -26.5q38 0 79.5 11t73.5 32l38 -121q-46 -30 -95.5 -43t-109.5 -13q-87 0 -157.5 36.5t-110.5 102.5t-40 150q0 82 38 148t106.5 103t156.5 37q78 0 140.5 -31.5t98 -87t35.5 -124.5q0 -47 -18 -94h-391zM247 404.5
q-33 -27.5 -44 -79.5l247 1q-2 52 -33.5 79t-83.5 27q-53 0 -86 -27.5zM466 688l66 95l102 -38l-91 -74zM411 747l89 -146l-127 -7l-46 85l-46 -85l-127 7l89 146h168z" />
    <glyph glyph-name="uni1EC0" unicode="&#x1ec0;" horiz-adv-x="698" 
d="M245 291v-149h411v-142h-580v700h570v-142h-401v-132h355v-135h-355zM67 906l101 38l66 -95l-77 -18zM425 884l89 -146l-127 -8l-45 85l-46 -85l-128 8l90 146h167z" />
    <glyph glyph-name="uni1EC1" unicode="&#x1ec1;" horiz-adv-x="649" 
d="M203 228q12 -53 52.5 -79.5t103.5 -26.5q38 0 79.5 11t73.5 32l38 -121q-46 -30 -95.5 -43t-109.5 -13q-87 0 -157.5 36.5t-110.5 102.5t-40 150q0 82 38 148t106.5 103t156.5 37q78 0 140.5 -31.5t98 -87t35.5 -124.5q0 -47 -18 -94h-391zM247 404.5
q-33 -27.5 -44 -79.5l247 1q-2 52 -33.5 79t-83.5 27q-53 0 -86 -27.5zM52 769l101 38l66 -95l-77 -18zM410 747l89 -146l-127 -8l-45 85l-46 -85l-128 8l90 146h167z" />
    <glyph glyph-name="uni1EC2" unicode="&#x1ec2;" horiz-adv-x="698" 
d="M245 291v-149h411v-142h-580v700h570v-142h-401v-132h355v-135h-355zM462 946q35 18 65 18t47.5 -16t17.5 -38q0 -28 -16 -52t-35 -36l-50 19q10 10 15 17.5t5 18.5q0 8 -5 13.5t-14 5.5q-10 0 -20 -7zM431 894l89 -146l-127 -8l-46 86l-46 -86l-127 8l89 146h168z" />
    <glyph glyph-name="uni1EC3" unicode="&#x1ec3;" horiz-adv-x="649" 
d="M203 228q12 -53 52.5 -79.5t103.5 -26.5q38 0 79.5 11t73.5 32l38 -121q-46 -30 -95.5 -43t-109.5 -13q-87 0 -157.5 36.5t-110.5 102.5t-40 150q0 82 38 148t106.5 103t156.5 37q78 0 140.5 -31.5t98 -87t35.5 -124.5q0 -47 -18 -94h-391zM247 404.5
q-33 -27.5 -44 -79.5l247 1q-2 52 -33.5 79t-83.5 27q-53 0 -86 -27.5zM442 799q35 18 65 18t47.5 -16t17.5 -38q0 -28 -16 -52t-35 -36l-50 19q10 10 15 17.5t5 18.5q0 8 -5 13.5t-14 5.5q-10 0 -20 -7zM411 747l89 -146l-127 -8l-46 86l-46 -86l-127 8l89 146h168z" />
    <glyph glyph-name="uni1EC4" unicode="&#x1ec4;" horiz-adv-x="698" 
d="M245 291v-149h411v-142h-580v700h570v-142h-401v-132h355v-135h-355zM265 930.5q-10 -10.5 -10 -27.5l-65 17q0 47 24.5 75t63.5 28q24 0 45.5 -7.5t25.5 -8.5q29 -12 45 -12t26 10t10 27l65 -16q0 -48 -24 -75.5t-63 -27.5q-24 0 -45.5 7.5t-25.5 8.5q-29 12 -45 12
q-17 0 -27 -10.5zM430 892l90 -145l-128 -8l-45 85l-46 -85l-127 8l89 145h167z" />
    <glyph glyph-name="uni1EC5" unicode="&#x1ec5;" horiz-adv-x="649" 
d="M203 228q12 -53 52.5 -79.5t103.5 -26.5q38 0 79.5 11t73.5 32l38 -121q-46 -30 -95.5 -43t-109.5 -13q-87 0 -157.5 36.5t-110.5 102.5t-40 150q0 82 38 148t106.5 103t156.5 37q78 0 140.5 -31.5t98 -87t35.5 -124.5q0 -47 -18 -94h-391zM247 404.5
q-33 -27.5 -44 -79.5l247 1q-2 52 -33.5 79t-83.5 27q-53 0 -86 -27.5zM245 783.5q-10 -10.5 -10 -27.5l-65 17q0 47 24.5 75t63.5 28q24 0 45.5 -7.5t25.5 -8.5q29 -12 45 -12t26 10t10 27l65 -16q0 -48 -24 -75.5t-63 -27.5q-24 0 -45.5 7.5t-25.5 8.5q-29 12 -45 12
q-17 0 -27 -10.5zM410 745l90 -145l-128 -8l-45 85l-46 -85l-127 8l89 145h167z" />
    <glyph glyph-name="uni1EC6" unicode="&#x1ec6;" horiz-adv-x="698" 
d="M245 291v-149h411v-142h-580v700h570v-142h-401v-132h355v-135h-355zM262 -173v130h171v-130h-171zM435 877l93 -132l-133 -6l-47 77l-48 -77l-133 6l93 132h175z" />
    <glyph glyph-name="uni1EC7" unicode="&#x1ec7;" horiz-adv-x="649" 
d="M203 228q12 -53 52.5 -79.5t103.5 -26.5q38 0 79.5 11t73.5 32l38 -121q-46 -30 -95.5 -43t-109.5 -13q-87 0 -157.5 36.5t-110.5 102.5t-40 150q0 82 38 148t106.5 103t156.5 37q78 0 140.5 -31.5t98 -87t35.5 -124.5q0 -47 -18 -94h-391zM247 404.5
q-33 -27.5 -44 -79.5l247 1q-2 52 -33.5 79t-83.5 27q-53 0 -86 -27.5zM246 -174v130h171v-130h-171zM411 747l89 -146l-127 -7l-46 85l-46 -85l-127 7l89 146h168z" />
    <glyph glyph-name="uni1EC8" unicode="&#x1ec8;" horiz-adv-x="324" 
d="M248 0h-172v700h172v-700zM113 777q13 13 20 24t7 25q0 11 -7 18.5t-19 7.5t-27 -9l-13 76q47 24 88 24q40 0 63.5 -21.5t23.5 -51.5q0 -38 -21.5 -69.5t-47.5 -49.5z" />
    <glyph glyph-name="uni1EC9" unicode="&#x1ec9;" horiz-adv-x="291" 
d="M228 0h-165v553h165v-553zM97 630q13 13 20 24t7 25q0 11 -7 18.5t-19 7.5t-27 -9l-13 76q47 24 88 24q40 0 63.5 -21.5t23.5 -51.5q0 -38 -21.5 -69.5t-47.5 -49.5z" />
    <glyph glyph-name="uni1ECA" unicode="&#x1eca;" horiz-adv-x="324" 
d="M248 0h-172v700h172v-700zM77 -173v130h171v-130h-171z" />
    <glyph glyph-name="uni1ECB" unicode="&#x1ecb;" horiz-adv-x="291" 
d="M228 0h-165v553h165v-553zM231 605h-171v129h171v-129zM60 -173v130h171v-130h-171z" />
    <glyph glyph-name="uni1ECC" unicode="&#x1ecc;" horiz-adv-x="855" 
d="M232.5 34.5q-86.5 46.5 -135 129t-48.5 186.5t49 186.5t135 129t195 46.5q108 0 194.5 -46.5t135 -129t48.5 -186.5t-49 -186.5t-135 -129t-195 -46.5q-108 0 -194.5 46.5zM531 164.5q45 26.5 70.5 74.5t25.5 111t-25.5 111t-70.5 74.5t-103 26.5t-103.5 -26.5t-71 -74.5
t-25.5 -111t25.5 -111t71 -74.5t103.5 -26.5t103 26.5zM342 -173v130h171v-130h-171z" />
    <glyph glyph-name="uni1ECD" unicode="&#x1ecd;" 
d="M187.5 25.5q-70.5 37.5 -110.5 103.5t-40 148t40 148t111 103t159 37t158.5 -37t110.5 -102.5t40 -147.5q0 -83 -40 -149t-110.5 -103.5t-159.5 -37.5q-88 0 -158.5 37.5zM449 171q40 41 40 106q0 66 -40 106.5t-103 40.5q-62 0 -102 -40t-40 -105q0 -67 40 -108t103 -41
q62 0 102 41zM261 -173v130h171v-130h-171z" />
    <glyph glyph-name="uni1ECE" unicode="&#x1ece;" horiz-adv-x="855" 
d="M232.5 34.5q-86.5 46.5 -135 129t-48.5 186.5t49 186.5t135 129t195 46.5q108 0 194.5 -46.5t135 -129t48.5 -186.5t-49 -186.5t-135 -129t-195 -46.5q-108 0 -194.5 46.5zM531 164.5q45 26.5 70.5 74.5t25.5 111t-25.5 111t-70.5 74.5t-103 26.5t-103.5 -26.5t-71 -74.5
t-25.5 -111t25.5 -111t71 -74.5t103.5 -26.5t103 26.5zM379 777q13 13 20 24t7 25q0 11 -7 18.5t-19 7.5t-27 -9l-13 76q47 24 88 24q40 0 63.5 -21.5t23.5 -51.5q0 -38 -21.5 -69.5t-47.5 -49.5z" />
    <glyph glyph-name="uni1ECF" unicode="&#x1ecf;" 
d="M187.5 25.5q-70.5 37.5 -110.5 103.5t-40 148t40 148t111 103t159 37t158.5 -37t110.5 -102.5t40 -147.5q0 -83 -40 -149t-110.5 -103.5t-159.5 -37.5q-88 0 -158.5 37.5zM449 171q40 41 40 106q0 66 -40 106.5t-103 40.5q-62 0 -102 -40t-40 -105q0 -67 40 -108t103 -41
q62 0 102 41zM298 630q13 13 20 24t7 25q0 11 -7 18.5t-19 7.5t-27 -9l-13 76q47 24 88 24q40 0 63.5 -21.5t23.5 -51.5q0 -38 -21.5 -69.5t-47.5 -49.5z" />
    <glyph glyph-name="uni1ED0" unicode="&#x1ed0;" horiz-adv-x="855" 
d="M232.5 34.5q-86.5 46.5 -135 129t-48.5 186.5t49 186.5t135 129t195 46.5q108 0 194.5 -46.5t135 -129t48.5 -186.5t-49 -186.5t-135 -129t-195 -46.5q-108 0 -194.5 46.5zM531 164.5q45 26.5 70.5 74.5t25.5 111t-25.5 111t-70.5 74.5t-103 26.5t-103.5 -26.5t-71 -74.5
t-25.5 -111t25.5 -111t71 -74.5t103.5 -26.5t103 26.5zM566 835l66 95l102 -38l-91 -74zM511 894l89 -146l-127 -7l-46 85l-46 -85l-127 7l89 146h168z" />
    <glyph glyph-name="uni1ED1" unicode="&#x1ed1;" 
d="M187.5 25.5q-70.5 37.5 -110.5 103.5t-40 148t40 148t111 103t159 37t158.5 -37t110.5 -102.5t40 -147.5q0 -83 -40 -149t-110.5 -103.5t-159.5 -37.5q-88 0 -158.5 37.5zM449 171q40 41 40 106q0 66 -40 106.5t-103 40.5q-62 0 -102 -40t-40 -105q0 -67 40 -108t103 -41
q62 0 102 41zM485 688l66 95l102 -38l-91 -74zM430 747l89 -146l-127 -7l-46 85l-46 -85l-127 7l89 146h168z" />
    <glyph glyph-name="uni1ED2" unicode="&#x1ed2;" horiz-adv-x="855" 
d="M232.5 34.5q-86.5 46.5 -135 129t-48.5 186.5t49 186.5t135 129t195 46.5q108 0 194.5 -46.5t135 -129t48.5 -186.5t-49 -186.5t-135 -129t-195 -46.5q-108 0 -194.5 46.5zM531 164.5q45 26.5 70.5 74.5t25.5 111t-25.5 111t-70.5 74.5t-103 26.5t-103.5 -26.5t-71 -74.5
t-25.5 -111t25.5 -111t71 -74.5t103.5 -26.5t103 26.5zM147 906l101 38l66 -95l-77 -18zM505 884l89 -146l-127 -8l-45 85l-46 -85l-128 8l90 146h167z" />
    <glyph glyph-name="uni1ED3" unicode="&#x1ed3;" 
d="M187.5 25.5q-70.5 37.5 -110.5 103.5t-40 148t40 148t111 103t159 37t158.5 -37t110.5 -102.5t40 -147.5q0 -83 -40 -149t-110.5 -103.5t-159.5 -37.5q-88 0 -158.5 37.5zM449 171q40 41 40 106q0 66 -40 106.5t-103 40.5q-62 0 -102 -40t-40 -105q0 -67 40 -108t103 -41
q62 0 102 41zM72 769l101 38l66 -95l-77 -18zM430 747l89 -146l-127 -8l-45 85l-46 -85l-128 8l90 146h167z" />
    <glyph glyph-name="uni1ED4" unicode="&#x1ed4;" horiz-adv-x="855" 
d="M232.5 34.5q-86.5 46.5 -135 129t-48.5 186.5t49 186.5t135 129t195 46.5q108 0 194.5 -46.5t135 -129t48.5 -186.5t-49 -186.5t-135 -129t-195 -46.5q-108 0 -194.5 46.5zM531 164.5q45 26.5 70.5 74.5t25.5 111t-25.5 111t-70.5 74.5t-103 26.5t-103.5 -26.5t-71 -74.5
t-25.5 -111t25.5 -111t71 -74.5t103.5 -26.5t103 26.5zM542 946q35 18 65 18t47.5 -16t17.5 -38q0 -28 -16 -52t-35 -36l-50 19q10 10 15 17.5t5 18.5q0 8 -5 13.5t-14 5.5q-10 0 -20 -7zM511 894l89 -146l-127 -8l-46 86l-46 -86l-127 8l89 146h168z" />
    <glyph glyph-name="uni1ED5" unicode="&#x1ed5;" 
d="M187.5 25.5q-70.5 37.5 -110.5 103.5t-40 148t40 148t111 103t159 37t158.5 -37t110.5 -102.5t40 -147.5q0 -83 -40 -149t-110.5 -103.5t-159.5 -37.5q-88 0 -158.5 37.5zM449 171q40 41 40 106q0 66 -40 106.5t-103 40.5q-62 0 -102 -40t-40 -105q0 -67 40 -108t103 -41
q62 0 102 41zM461 799q35 18 65 18t47.5 -16t17.5 -38q0 -28 -16 -52t-35 -36l-50 19q10 10 15 17.5t5 18.5q0 8 -5 13.5t-14 5.5q-10 0 -20 -7zM430 747l89 -146l-127 -8l-46 86l-46 -86l-127 8l89 146h168z" />
    <glyph glyph-name="uni1ED6" unicode="&#x1ed6;" horiz-adv-x="855" 
d="M232.5 34.5q-86.5 46.5 -135 129t-48.5 186.5t49 186.5t135 129t195 46.5q108 0 194.5 -46.5t135 -129t48.5 -186.5t-49 -186.5t-135 -129t-195 -46.5q-108 0 -194.5 46.5zM531 164.5q45 26.5 70.5 74.5t25.5 111t-25.5 111t-70.5 74.5t-103 26.5t-103.5 -26.5t-71 -74.5
t-25.5 -111t25.5 -111t71 -74.5t103.5 -26.5t103 26.5zM346 930.5q-10 -10.5 -10 -27.5l-65 17q0 47 24.5 75t63.5 28q24 0 45.5 -7.5t25.5 -8.5q29 -12 45 -12t26 10t10 27l65 -16q0 -48 -24 -75.5t-63 -27.5q-24 0 -45.5 7.5t-25.5 8.5q-29 12 -45 12q-17 0 -27 -10.5z
M511 892l90 -145l-128 -8l-45 85l-46 -85l-127 8l89 145h167z" />
    <glyph glyph-name="uni1ED7" unicode="&#x1ed7;" 
d="M187.5 25.5q-70.5 37.5 -110.5 103.5t-40 148t40 148t111 103t159 37t158.5 -37t110.5 -102.5t40 -147.5q0 -83 -40 -149t-110.5 -103.5t-159.5 -37.5q-88 0 -158.5 37.5zM449 171q40 41 40 106q0 66 -40 106.5t-103 40.5q-62 0 -102 -40t-40 -105q0 -67 40 -108t103 -41
q62 0 102 41zM265 783.5q-10 -10.5 -10 -27.5l-65 17q0 47 24.5 75t63.5 28q24 0 45.5 -7.5t25.5 -8.5q29 -12 45 -12t26 10t10 27l65 -16q0 -48 -24 -75.5t-63 -27.5q-24 0 -45.5 7.5t-25.5 8.5q-29 12 -45 12q-17 0 -27 -10.5zM430 745l90 -145l-128 -8l-45 85l-46 -85
l-127 8l89 145h167z" />
    <glyph glyph-name="uni1ED8" unicode="&#x1ed8;" horiz-adv-x="855" 
d="M232.5 34.5q-86.5 46.5 -135 129t-48.5 186.5t49 186.5t135 129t195 46.5q108 0 194.5 -46.5t135 -129t48.5 -186.5t-49 -186.5t-135 -129t-195 -46.5q-108 0 -194.5 46.5zM531 164.5q45 26.5 70.5 74.5t25.5 111t-25.5 111t-70.5 74.5t-103 26.5t-103.5 -26.5t-71 -74.5
t-25.5 -111t25.5 -111t71 -74.5t103.5 -26.5t103 26.5zM342 -173v130h171v-130h-171zM515 877l93 -132l-133 -6l-47 77l-48 -77l-133 6l93 132h175z" />
    <glyph glyph-name="uni1ED9" unicode="&#x1ed9;" 
d="M187.5 25.5q-70.5 37.5 -110.5 103.5t-40 148t40 148t111 103t159 37t158.5 -37t110.5 -102.5t40 -147.5q0 -83 -40 -149t-110.5 -103.5t-159.5 -37.5q-88 0 -158.5 37.5zM449 171q40 41 40 106q0 66 -40 106.5t-103 40.5q-62 0 -102 -40t-40 -105q0 -67 40 -108t103 -41
q62 0 102 41zM261 -173v130h171v-130h-171zM430 747l89 -146l-127 -7l-46 85l-46 -85l-127 7l89 146h168z" />
    <glyph glyph-name="uni1EDA" unicode="&#x1eda;" horiz-adv-x="855" 
d="M783 482.5q23 -61.5 23 -132.5q0 -104 -49 -186.5t-135 -129t-195 -46.5q-108 0 -194.5 46.5t-135 129t-48.5 186.5t49 186.5t135 129t195 46.5q93 0 173 -36q34 5 34 47q0 20 -9 51l142 8q14 -40 14 -72q0 -40 -17.5 -70.5t-47.5 -47.5q43 -48 66 -109.5zM531 164.5
q45 26.5 70.5 74.5t25.5 111t-25.5 111t-70.5 74.5t-103 26.5t-103.5 -26.5t-71 -74.5t-25.5 -111t25.5 -111t71 -74.5t103.5 -26.5t103 26.5zM594 850l-107 -107l-129 7l88 130z" />
    <glyph glyph-name="uni1EDB" unicode="&#x1edb;" 
d="M648 648q14 -36 14 -73q0 -41 -18.5 -72t-48.5 -47q61 -75 61 -178q0 -83 -40 -149t-110.5 -103.5t-159.5 -37.5q-88 0 -158.5 37.5t-110.5 103.5t-40 148t40 148t111 103t159 37q70 0 128 -23q40 2 40 47q0 20 -9 51zM449 171q40 41 40 106q0 66 -40 106.5t-103 40.5
q-62 0 -102 -40t-40 -105q0 -67 40 -108t103 -41q62 0 102 41zM506 731l-117 -125l-115 11l77 150z" />
    <glyph glyph-name="uni1EDC" unicode="&#x1edc;" horiz-adv-x="855" 
d="M783 482.5q23 -61.5 23 -132.5q0 -104 -49 -186.5t-135 -129t-195 -46.5q-108 0 -194.5 46.5t-135 129t-48.5 186.5t49 186.5t135 129t195 46.5q93 0 173 -36q34 5 34 47q0 20 -9 51l142 8q14 -40 14 -72q0 -40 -17.5 -70.5t-47.5 -47.5q43 -48 66 -109.5zM531 164.5
q45 26.5 70.5 74.5t25.5 111t-25.5 111t-70.5 74.5t-103 26.5t-103.5 -26.5t-71 -74.5t-25.5 -111t25.5 -111t71 -74.5t103.5 -26.5t103 26.5zM497 750l-129 -7l-107 107l148 30z" />
    <glyph glyph-name="uni1EDD" unicode="&#x1edd;" 
d="M648 648q14 -36 14 -73q0 -41 -18.5 -72t-48.5 -47q61 -75 61 -178q0 -83 -40 -149t-110.5 -103.5t-159.5 -37.5q-88 0 -158.5 37.5t-110.5 103.5t-40 148t40 148t111 103t159 37q70 0 128 -23q40 2 40 47q0 20 -9 51zM449 171q40 41 40 106q0 66 -40 106.5t-103 40.5
q-62 0 -102 -40t-40 -105q0 -67 40 -108t103 -41q62 0 102 41zM411 617l-115 -11l-117 125l156 36z" />
    <glyph glyph-name="uni1EDE" unicode="&#x1ede;" horiz-adv-x="855" 
d="M783 482.5q23 -61.5 23 -132.5q0 -104 -49 -186.5t-135 -129t-195 -46.5q-108 0 -194.5 46.5t-135 129t-48.5 186.5t49 186.5t135 129t195 46.5q93 0 173 -36q34 5 34 47q0 20 -9 51l142 8q14 -40 14 -72q0 -40 -17.5 -70.5t-47.5 -47.5q43 -48 66 -109.5zM531 164.5
q45 26.5 70.5 74.5t25.5 111t-25.5 111t-70.5 74.5t-103 26.5t-103.5 -26.5t-71 -74.5t-25.5 -111t25.5 -111t71 -74.5t103.5 -26.5t103 26.5zM379 777q13 13 20 24t7 25q0 11 -7 18.5t-19 7.5t-27 -9l-13 76q47 24 88 24q40 0 63.5 -21.5t23.5 -51.5q0 -38 -21.5 -69.5
t-47.5 -49.5z" />
    <glyph glyph-name="uni1EDF" unicode="&#x1edf;" 
d="M648 648q14 -36 14 -73q0 -41 -18.5 -72t-48.5 -47q61 -75 61 -178q0 -83 -40 -149t-110.5 -103.5t-159.5 -37.5q-88 0 -158.5 37.5t-110.5 103.5t-40 148t40 148t111 103t159 37q70 0 128 -23q40 2 40 47q0 20 -9 51zM449 171q40 41 40 106q0 66 -40 106.5t-103 40.5
q-62 0 -102 -40t-40 -105q0 -67 40 -108t103 -41q62 0 102 41zM298 630q13 13 20 24t7 25q0 11 -7 18.5t-19 7.5t-27 -9l-13 76q47 24 88 24q40 0 63.5 -21.5t23.5 -51.5q0 -38 -21.5 -69.5t-47.5 -49.5z" />
    <glyph glyph-name="uni1EE0" unicode="&#x1ee0;" horiz-adv-x="855" 
d="M783 482.5q23 -61.5 23 -132.5q0 -104 -49 -186.5t-135 -129t-195 -46.5q-108 0 -194.5 46.5t-135 129t-48.5 186.5t49 186.5t135 129t195 46.5q93 0 173 -36q34 5 34 47q0 20 -9 51l142 8q14 -40 14 -72q0 -40 -17.5 -70.5t-47.5 -47.5q43 -48 66 -109.5zM531 164.5
q45 26.5 70.5 74.5t25.5 111t-25.5 111t-70.5 74.5t-103 26.5t-103.5 -26.5t-71 -74.5t-25.5 -111t25.5 -111t71 -74.5t103.5 -26.5t103 26.5zM248 752q0 53 27.5 84.5t72.5 31.5q21 0 40 -5t43 -14q35 -13 50 -13q19 0 31 11.5t12 30.5l75 -18q0 -53 -28 -84.5t-73 -31.5
q-21 0 -38.5 5t-42.5 14q-35 13 -52 13q-19 0 -30.5 -11.5t-11.5 -30.5z" />
    <glyph glyph-name="uni1EE1" unicode="&#x1ee1;" 
d="M648 648q14 -36 14 -73q0 -41 -18.5 -72t-48.5 -47q61 -75 61 -178q0 -83 -40 -149t-110.5 -103.5t-159.5 -37.5q-88 0 -158.5 37.5t-110.5 103.5t-40 148t40 148t111 103t159 37q70 0 128 -23q40 2 40 47q0 20 -9 51zM449 171q40 41 40 106q0 66 -40 106.5t-103 40.5
q-62 0 -102 -40t-40 -105q0 -67 40 -108t103 -41q62 0 102 41zM171 613q0 53 27.5 84.5t72.5 31.5q21 0 40 -5t43 -14q35 -13 50 -13q19 0 31 11.5t12 30.5l75 -18q0 -53 -28 -84.5t-73 -31.5q-21 0 -38.5 5t-42.5 14q-35 13 -52 13q-19 0 -30.5 -11.5t-11.5 -30.5z" />
    <glyph glyph-name="uni1EE2" unicode="&#x1ee2;" horiz-adv-x="855" 
d="M783 482.5q23 -61.5 23 -132.5q0 -104 -49 -186.5t-135 -129t-195 -46.5q-108 0 -194.5 46.5t-135 129t-48.5 186.5t49 186.5t135 129t195 46.5q93 0 173 -36q34 5 34 47q0 20 -9 51l142 8q14 -40 14 -72q0 -40 -17.5 -70.5t-47.5 -47.5q43 -48 66 -109.5zM531 164.5
q45 26.5 70.5 74.5t25.5 111t-25.5 111t-70.5 74.5t-103 26.5t-103.5 -26.5t-71 -74.5t-25.5 -111t25.5 -111t71 -74.5t103.5 -26.5t103 26.5zM342 -173v130h171v-130h-171z" />
    <glyph glyph-name="uni1EE3" unicode="&#x1ee3;" 
d="M648 648q14 -36 14 -73q0 -41 -18.5 -72t-48.5 -47q61 -75 61 -178q0 -83 -40 -149t-110.5 -103.5t-159.5 -37.5q-88 0 -158.5 37.5t-110.5 103.5t-40 148t40 148t111 103t159 37q70 0 128 -23q40 2 40 47q0 20 -9 51zM449 171q40 41 40 106q0 66 -40 106.5t-103 40.5
q-62 0 -102 -40t-40 -105q0 -67 40 -108t103 -41q62 0 102 41zM261 -173v130h171v-130h-171z" />
    <glyph glyph-name="uni1EE4" unicode="&#x1ee4;" horiz-adv-x="765" 
d="M211 25.5q-73 37.5 -112.5 107.5t-39.5 165v402h173v-402q0 -80 39.5 -122.5t110.5 -42.5q73 0 113 42.5t40 122.5v402h171v-402q0 -95 -39.5 -165t-112.5 -107.5t-172 -37.5q-98 0 -171 37.5zM298 -173v130h171v-130h-171z" />
    <glyph glyph-name="uni1EE5" unicode="&#x1ee5;" horiz-adv-x="684" 
d="M455 553h165v-553h-165v74q-30 -40 -75.5 -63t-106.5 -23q-101 0 -159.5 61t-58.5 169v335h165v-304q0 -114 105 -114q45 0 79.5 27t50.5 71v320zM247 -173v130h171v-130h-171z" />
    <glyph glyph-name="uni1EE6" unicode="&#x1ee6;" horiz-adv-x="765" 
d="M211 25.5q-73 37.5 -112.5 107.5t-39.5 165v402h173v-402q0 -80 39.5 -122.5t110.5 -42.5q73 0 113 42.5t40 122.5v402h171v-402q0 -95 -39.5 -165t-112.5 -107.5t-172 -37.5q-98 0 -171 37.5zM335 777q13 13 20 24t7 25q0 11 -7 18.5t-19 7.5t-27 -9l-13 76q47 24 88 24
q40 0 63.5 -21.5t23.5 -51.5q0 -38 -21.5 -69.5t-47.5 -49.5z" />
    <glyph glyph-name="uni1EE7" unicode="&#x1ee7;" horiz-adv-x="684" 
d="M455 553h165v-553h-165v74q-30 -40 -75.5 -63t-106.5 -23q-101 0 -159.5 61t-58.5 169v335h165v-304q0 -114 105 -114q45 0 79.5 27t50.5 71v320zM288 630q13 13 20 24t7 25q0 11 -7 18.5t-19 7.5t-27 -9l-13 76q47 24 88 24q40 0 63.5 -21.5t23.5 -51.5
q0 -38 -21.5 -69.5t-47.5 -49.5z" />
    <glyph glyph-name="uni1EE8" unicode="&#x1ee8;" horiz-adv-x="765" 
d="M794 806q14 -36 14 -73q0 -52 -28.5 -86.5t-73.5 -45.5v-303q0 -95 -39.5 -165t-112.5 -107.5t-172 -37.5q-98 0 -171 37.5t-112.5 107.5t-39.5 165v402h173v-402q0 -80 39.5 -122.5t110.5 -42.5q73 0 113 42.5t40 122.5v402h88q38 2 38 47q0 20 -9 51zM549 850
l-107 -107l-129 7l88 130z" />
    <glyph glyph-name="uni1EE9" unicode="&#x1ee9;" horiz-adv-x="684" 
d="M714 659q14 -36 14 -73q0 -53 -30 -88.5t-78 -44.5v-453h-165v74q-30 -40 -75.5 -63t-106.5 -23q-101 0 -159.5 61t-58.5 169v335h165v-304q0 -114 105 -114q45 0 79.5 27t50.5 71v320h88q38 2 38 47q0 20 -9 51zM496 731l-117 -125l-115 11l77 150z" />
    <glyph glyph-name="uni1EEA" unicode="&#x1eea;" horiz-adv-x="765" 
d="M794 806q14 -36 14 -73q0 -52 -28.5 -86.5t-73.5 -45.5v-303q0 -95 -39.5 -165t-112.5 -107.5t-172 -37.5q-98 0 -171 37.5t-112.5 107.5t-39.5 165v402h173v-402q0 -80 39.5 -122.5t110.5 -42.5q73 0 113 42.5t40 122.5v402h88q38 2 38 47q0 20 -9 51zM453 750l-129 -7
l-107 107l148 30z" />
    <glyph glyph-name="uni1EEB" unicode="&#x1eeb;" horiz-adv-x="684" 
d="M714 659q14 -36 14 -73q0 -53 -30 -88.5t-78 -44.5v-453h-165v74q-30 -40 -75.5 -63t-106.5 -23q-101 0 -159.5 61t-58.5 169v335h165v-304q0 -114 105 -114q45 0 79.5 27t50.5 71v320h88q38 2 38 47q0 20 -9 51zM401 617l-115 -11l-117 125l156 36z" />
    <glyph glyph-name="uni1EEC" unicode="&#x1eec;" horiz-adv-x="765" 
d="M794 806q14 -36 14 -73q0 -52 -28.5 -86.5t-73.5 -45.5v-303q0 -95 -39.5 -165t-112.5 -107.5t-172 -37.5q-98 0 -171 37.5t-112.5 107.5t-39.5 165v402h173v-402q0 -80 39.5 -122.5t110.5 -42.5q73 0 113 42.5t40 122.5v402h88q38 2 38 47q0 20 -9 51zM335 777
q13 13 20 24t7 25q0 11 -7 18.5t-19 7.5t-27 -9l-13 76q47 24 88 24q40 0 63.5 -21.5t23.5 -51.5q0 -38 -21.5 -69.5t-47.5 -49.5z" />
    <glyph glyph-name="uni1EED" unicode="&#x1eed;" horiz-adv-x="684" 
d="M714 659q14 -36 14 -73q0 -53 -30 -88.5t-78 -44.5v-453h-165v74q-30 -40 -75.5 -63t-106.5 -23q-101 0 -159.5 61t-58.5 169v335h165v-304q0 -114 105 -114q45 0 79.5 27t50.5 71v320h88q38 2 38 47q0 20 -9 51zM288 630q13 13 20 24t7 25q0 11 -7 18.5t-19 7.5t-27 -9
l-13 76q47 24 88 24q40 0 63.5 -21.5t23.5 -51.5q0 -38 -21.5 -69.5t-47.5 -49.5z" />
    <glyph glyph-name="uni1EEE" unicode="&#x1eee;" horiz-adv-x="765" 
d="M794 806q14 -36 14 -73q0 -52 -28.5 -86.5t-73.5 -45.5v-303q0 -95 -39.5 -165t-112.5 -107.5t-172 -37.5q-98 0 -171 37.5t-112.5 107.5t-39.5 165v402h173v-402q0 -80 39.5 -122.5t110.5 -42.5q73 0 113 42.5t40 122.5v402h88q38 2 38 47q0 20 -9 51zM204 752
q0 53 27.5 84.5t72.5 31.5q21 0 40 -5t43 -14q35 -13 50 -13q19 0 31 11.5t12 30.5l75 -18q0 -53 -28 -84.5t-73 -31.5q-21 0 -38.5 5t-42.5 14q-35 13 -52 13q-19 0 -30.5 -11.5t-11.5 -30.5z" />
    <glyph glyph-name="uni1EEF" unicode="&#x1eef;" horiz-adv-x="684" 
d="M714 659q14 -36 14 -73q0 -53 -30 -88.5t-78 -44.5v-453h-165v74q-30 -40 -75.5 -63t-106.5 -23q-101 0 -159.5 61t-58.5 169v335h165v-304q0 -114 105 -114q45 0 79.5 27t50.5 71v320h88q38 2 38 47q0 20 -9 51zM162 613q0 53 27.5 84.5t72.5 31.5q21 0 40 -5t43 -14
q35 -13 50 -13q19 0 31 11.5t12 30.5l75 -18q0 -53 -28 -84.5t-73 -31.5q-21 0 -38.5 5t-42.5 14q-35 13 -52 13q-19 0 -30.5 -11.5t-11.5 -30.5z" />
    <glyph glyph-name="uni1EF0" unicode="&#x1ef0;" horiz-adv-x="765" 
d="M794 806q14 -36 14 -73q0 -52 -28.5 -86.5t-73.5 -45.5v-303q0 -95 -39.5 -165t-112.5 -107.5t-172 -37.5q-98 0 -171 37.5t-112.5 107.5t-39.5 165v402h173v-402q0 -80 39.5 -122.5t110.5 -42.5q73 0 113 42.5t40 122.5v402h88q38 2 38 47q0 20 -9 51zM298 -173v130h171
v-130h-171z" />
    <glyph glyph-name="uni1EF1" unicode="&#x1ef1;" horiz-adv-x="684" 
d="M714 659q14 -36 14 -73q0 -53 -30 -88.5t-78 -44.5v-453h-165v74q-30 -40 -75.5 -63t-106.5 -23q-101 0 -159.5 61t-58.5 169v335h165v-304q0 -114 105 -114q45 0 79.5 27t50.5 71v320h88q38 2 38 47q0 20 -9 51zM247 -173v130h171v-130h-171z" />
    <glyph glyph-name="Ygrave" unicode="&#x1ef2;" horiz-adv-x="743" 
d="M552 700h187l-281 -461v-239h-173v242l-281 458h187l181 -318zM441 750l-129 -7l-107 107l148 30z" />
    <glyph glyph-name="ygrave" unicode="&#x1ef3;" horiz-adv-x="659" 
d="M329 177l140 376h175l-233 -553l-71 -171h-170l77 175l-232 549h174zM394 617l-115 -11l-117 125l156 36z" />
    <glyph glyph-name="uni1EF4" unicode="&#x1ef4;" horiz-adv-x="743" 
d="M552 700h187l-281 -461v-239h-173v242l-281 458h187l181 -318zM286 -173v130h171v-130h-171z" />
    <glyph glyph-name="uni1EF5" unicode="&#x1ef5;" horiz-adv-x="659" 
d="M329 177l140 376h175l-233 -553l-71 -171h-170l77 175l-232 549h174zM397 -173v130h171v-130h-171z" />
    <glyph glyph-name="uni1EF6" unicode="&#x1ef6;" horiz-adv-x="743" 
d="M552 700h187l-281 -461v-239h-173v242l-281 458h187l181 -318zM323 777q13 13 20 24t7 25q0 11 -7 18.5t-19 7.5t-27 -9l-13 76q47 24 88 24q40 0 63.5 -21.5t23.5 -51.5q0 -38 -21.5 -69.5t-47.5 -49.5z" />
    <glyph glyph-name="uni1EF7" unicode="&#x1ef7;" horiz-adv-x="659" 
d="M329 177l140 376h175l-233 -553l-71 -171h-170l77 175l-232 549h174zM281 630q13 13 20 24t7 25q0 11 -7 18.5t-19 7.5t-27 -9l-13 76q47 24 88 24q40 0 63.5 -21.5t23.5 -51.5q0 -38 -21.5 -69.5t-47.5 -49.5z" />
    <glyph glyph-name="uni1EF8" unicode="&#x1ef8;" horiz-adv-x="743" 
d="M552 700h187l-281 -461v-239h-173v242l-281 458h187l181 -318zM192 752q0 53 27.5 84.5t72.5 31.5q21 0 40 -5t43 -14q35 -13 50 -13q19 0 31 11.5t12 30.5l75 -18q0 -53 -28 -84.5t-73 -31.5q-21 0 -38.5 5t-42.5 14q-35 13 -52 13q-19 0 -30.5 -11.5t-11.5 -30.5z" />
    <glyph glyph-name="uni1EF9" unicode="&#x1ef9;" horiz-adv-x="659" 
d="M329 177l140 376h175l-233 -553l-71 -171h-170l77 175l-232 549h174zM155 613q0 53 27.5 84.5t72.5 31.5q21 0 40 -5t43 -14q35 -13 50 -13q19 0 31 11.5t12 30.5l75 -18q0 -53 -28 -84.5t-73 -31.5q-21 0 -38.5 5t-42.5 14q-35 13 -52 13q-19 0 -30.5 -11.5t-11.5 -30.5
z" />
    <glyph glyph-name="uni2000" unicode="&#x2000;" horiz-adv-x="514" 
 />
    <glyph glyph-name="uni2001" unicode="&#x2001;" horiz-adv-x="1014" 
 />
    <glyph glyph-name="uni2002" unicode="&#x2002;" horiz-adv-x="514" 
 />
    <glyph glyph-name="uni2003" unicode="&#x2003;" horiz-adv-x="1014" 
 />
    <glyph glyph-name="uni2004" unicode="&#x2004;" horiz-adv-x="347" 
 />
    <glyph glyph-name="uni2005" unicode="&#x2005;" horiz-adv-x="264" 
 />
    <glyph glyph-name="uni2006" unicode="&#x2006;" horiz-adv-x="181" 
 />
    <glyph glyph-name="uni2007" unicode="&#x2007;" horiz-adv-x="734" 
 />
    <glyph glyph-name="uni2008" unicode="&#x2008;" horiz-adv-x="276" 
 />
    <glyph glyph-name="uni2009" unicode="&#x2009;" horiz-adv-x="214" 
 />
    <glyph glyph-name="uni200A" unicode="&#x200a;" horiz-adv-x="157" 
 />
    <glyph glyph-name="uni200B" unicode="&#x200b;" horiz-adv-x="14" 
 />
    <glyph glyph-name="uni200C" unicode="&#x200c;" horiz-adv-x="14" 
 />
    <glyph glyph-name="uni200D" unicode="&#x200d;" horiz-adv-x="14" 
 />
    </font>
</defs>
</svg>
